Важное объявление!
У Нас Все раздачи мультитрекерные, при нуле пиров в релизах, можете смело вставать на закачку!
 
Автор Сообщение

HUNTER

Стаж:
4 года 4 месяца
Сообщений:
56842

Репутация: 101

[+] [-]
Вне форума [Профиль] [ЛС]

Жизнь или смерть\Между жизнью и смертью\ Life Against Death
Год выпуска: 1998
Страна: США
Жанр: Документальный фильм
Продолжительность: 00:48:47
Перевод: Авторский (одноголосый закадровый)
Доп. инфо о переводе: Алексей Медведев
Русские субтитры: нет
Исп. Продюссер: John Langley\Джон Лэнгли
Издатель: Langley Productions
Описание: Это ошеломляющее зрелище, в котором нет режиссера и актеров, никого не оставит равнодушным. В этом фиильме вас ждут шокирующие съемки противостояния жизни и смерти, снятые операторами при непредвиденных обстоятельсвах. Вы станете свидетелем реальных трагических кадров авиационных аварий и ужасных пожаров; полицейских осад и жестоких перестрелок; стихийных бедствий и дорожных проишествий.
Сэмпл: http://multi-up.com/1048090
качество: VHSRip
формат: AVI
Видео: 720x576 (1.25:1), 25 fps, DivX Codec 5.x or 6.x ~2398 kbps avg, 0.23 bit/pixel
Аудио: 44.100 kHz, MPEG Layer 3, 2 ch, ~192.00 kbps avg

MediaInfo

ОбщееПолное имя : D:\TEMP TORRENT\Life Against death.aviФормат : AVIФормат/Информация : Audio Video InterleaveРазмер файла : 908 МбайтПродолжительность : 48 м.Общий поток : 2603 Кбит/секПрограмма кодирования : MEncoder SVN-r33883(20110719-gcc4.5.2)Библиотека кодирования : MPlayer
ВидеоИдентификатор : 0Формат : MPEG-4 VisualПрофиль формата : Simple@L1Параметр BVOP формата : НетПараметр QPel формата : НетПараметр GMC формата : Без точки переходаПараметр матрицы формата : Default (H.263)Идентификатор кодека : DX50Идентификатор кодека/Подсказка : DivX 5Продолжительность : 48 м.Битрейт : 2398 Кбит/секШирина : 720 пикселейВысота : 576 пикселейСоотношение сторон : 5:4Частота кадров : 25,000 кадров/секСтандарт вещания : PALЦветовое пространство : YUVСубдискретизация насыщенности : 4:2:0Битовая глубина : 8 битТип развёртки : ПрогрессивнаяМетод сжатия : С потерямиБит/(Пиксели*Кадры) : 0.231Размер потока : 837 Мбайт (92%)Библиотека кодирования : Lavc53.8.0
АудиоИдентификатор : 1Формат : MPEG AudioВерсия формата : Version 1Профиль формата : Layer 3Режим : Joint stereoИдентификатор кодека : 55Идентификатор кодека/Подсказка : MP3Продолжительность : 48 м.Вид битрейта : ПостоянныйБитрейт : 192 Кбит/секКаналы : 2 каналаЧастота : 44,1 КГцМетод сжатия : С потерямиРазмер потока : 67,0 Мбайт (7%)Выравнивание : Соединение по промежуткамПродолжительность промежутка : 26 мс. (0,65 видеокадр)Время предзагрузки промежутка : 522 мс.

Скриншоты

Полноразмерные обложки кассет


_________________
Показать сообщения:    

Текущее время: Сегодня 15:02

Часовой пояс: GMT



Вы не можете начинать темы
Вы не можете отвечать на сообщения
Вы не можете редактировать свои сообщения
Вы не можете удалять свои сообщения
Вы не можете голосовать в опросах
Вы не можете прикреплять файлы к сообщениям
Вы не можете скачивать файлы