Важное объявление!
У Нас Все раздачи мультитрекерные, при нуле пиров в релизах, можете смело вставать на закачку!
 
Автор Сообщение

HUNTER

Стаж:
4 года 4 месяца
Сообщений:
56848

Репутация: 101

[+] [-]
Вне форума [Профиль] [ЛС]

Жизнь дерьмо / Life Stinks
Страна: США
Студия: Brooksfilms, MGM
Жанр: комедия, мелодрама
Год выпуска: 1991
Продолжительность: 01:32:06
Перевод 1: Профессиональный (многоголосый закадровый #1)
Перевод 2: Профессиональный (многоголосый закадровый #2)
Перевод 3: Авторский (одноголосый закадровый) | А. Михалёв
Оригинальная аудиодорожка: английский
Cубтитры: русские, английские
Режиссер: Мэл Брукс / Mel Brooks
В ролях: Мел Брукс, Лесли Энн Уоррен, Джеффри Тэмбор, Стюарт Пэнкин, Хауард Моррис, Руди Де Лука, Тедди Уилсон, Майкл Инсайн, Мэттью Фэйзон
Описание: Бедные мечтают о богатстве, а миллионеры, как явствует из многочисленных американских фильмов, не прочь окунуться в нищету, грязь и вонючее дерьмо. Мэл Брукс играет одного из таких богатеев, который заключает пари, что сможет целый месяц просуществовать среди отбросов общества, не имея в начале этого социального эксперимента ни цента в кармане.
Разумеется, герой фильма не только открывает для себя новые «горизонты» жизни, сталкиваясь с бесправием и беззаконием, но и познает красоту человеческого духа, беспредельную доброту и самоотверженность убогих и нищих. Здесь ему даже удается найти свою любовь!

Видеоряд от: CtrlHD (Life Stinks 1991 1080p Blu-ray AVC DTS-HD MA 2.0-UNRELiABLE)
Тип релиза: BDRip 720p
Контейнер: MKV
Видео: 1280x692 (OAR), 23.976 fps, x264@L4.1, crf=18, ~7000 kbps avg
Аудио 1: Russian: 48 kHz, AC3, 3/2 (L,C,R,l,r) + LFE ch, ~448 kbps avg |Многоголосый закадровый #1|
Аудио 2: Russian: 48 kHz, AC3, 2/0 (L,R), ~192 kbps avg |Многоголосый закадровый #2|
Аудио 3: Russian: 48 kHz, AC3, 2/0 (L,R), ~192 kbps avg |Одноголосый закадровый, А. Михалёв|
Аудио 4: English: 48 kHz, DTS, 2/0 (L,R), ~1536 kbps avg |Original, Blu-Ray|
Аудио 5: English: 48 kHz, AC3, 3/2 (L,C,R,l,r) + LFE ch, ~448 kbps avg |Original|
Аудио 6: English: 48 kHz, AC3, 2/0 (L,R), ~256 kbps avg |Commentary with Mel Brooks, Rudy De Luca and Steve Haberman|
Субтитры: Russian, English

MediaInfo

General
Unique ID : 250884579571491769660795377090279837119 (0xBCBE9CC8BF87601F9EE2A661300D0DBF)
Complete name : D:\Life.Stinks.1991.720p.BluRay.x264.3xRus.3.Eng.-CtrlHD.mkv
Format : Matroska
Format version : Version 4 / Version 2
File size : 6.59 GiB
Duration : 1h 32mn
Overall bit rate : 10.2 Mbps
Movie name : Жизнь дерьмо / Life Stinks (1991) =CtrlHD=
Encoded date : UTC 2015-08-15 06:09:40
Writing application : mkvmerge v8.2.0 ('World of Adventure') 64bit
Writing library : libebml v1.3.1 + libmatroska v1.4.2
Attachements : cover.jpg
DURATION : 01:28:34.339000000
NUMBER_OF_FRAMES : 1069
NUMBER_OF_BYTES : 35856
_STATISTICS_WRITING_APP : mkvmerge v8.2.0 ('World of Adventure') 64bit
_STATISTICS_WRITING_DATE_UT : 2015-08-15 06:09:40
_STATISTICS_TAGS : BPS DURATION NUMBER_OF_FRAMES NUMBER_OF_BYTES
Video
ID : 1
Format : AVC
Format/Info : Advanced Video Codec
Format profile : High@L4.1
Format settings, CABAC : Yes
Format settings, ReFrames : 9 frames
Codec ID : V_MPEG4/ISO/AVC
Duration : 1h 32mn
Bit rate : 6 996 Kbps
Width : 1 280 pixels
Height : 692 pixels
Display aspect ratio : 1.85:1
Frame rate mode : Constant
Frame rate : 23.976 fps
Color space : YUV
Chroma subsampling : 4:2:0
Bit depth : 8 bits
Scan type : Progressive
Bits/(Pixel*Frame) : 0.329
Stream size : 4.50 GiB (68%)
Title : Life Stinks (1991)
Writing library : x264 core 144 r2525kMod 40bb568
Encoding settings : cabac=1 / ref=9 / deblock=1:-3:-3 / analyse=0x3:0x133 / me=umh / subme=10 / psy=1 / fade_compensate=0.00 / psy_rd=1.05:0.00 / mixed_ref=1 / me_range=16 / chroma_me=1 / trellis=2 / 8x8dct=1 / cqm=0 / deadzone=21,11 / fast_pskip=0 / chroma_qp_offset=-2 / threads=6 / lookahead_threads=1 / sliced_threads=0 / nr=0 / decimate=0 / interlaced=0 / bluray_compat=0 / constrained_intra=0 / fgo=0 / bframes=8 / b_pyramid=2 / b_adapt=2 / b_bias=0 / direct=3 / weightb=1 / open_gop=0 / weightp=2 / keyint=250 / keyint_min=23 / scenecut=40 / intra_refresh=0 / rc=crf / mbtree=0 / crf=18.0000 / qcomp=0.70 / qpmin=0 / qpmax=69 / qpstep=4 / ip_ratio=1.30 / pb_ratio=1.20 / aq=1:0.90
Language : English
Default : Yes
Forced : No
DURATION : 01:32:06.104000000
NUMBER_OF_FRAMES : 132494
NUMBER_OF_BYTES : 4971819672
_STATISTICS_WRITING_APP : mkvmerge v8.2.0 ('World of Adventure') 64bit
_STATISTICS_WRITING_DATE_UT : 2015-08-15 06:09:40
_STATISTICS_TAGS : BPS DURATION NUMBER_OF_FRAMES NUMBER_OF_BYTES
Audio #1
ID : 2
Format : AC-3
Format/Info : Audio Coding 3
Mode extension : CM (complete main)
Format settings, Endianness : Big
Codec ID : A_AC3
Duration : 1h 32mn
Bit rate mode : Constant
Bit rate : 448 Kbps
Channel(s) : 6 channels
Channel positions : Front: L C R, Side: L R, LFE
Sampling rate : 48.0 KHz
Bit depth : 16 bits
Compression mode : Lossy
Stream size : 295 MiB (4%)
Title : MVO #1
Language : Russian
Default : Yes
Forced : No
Audio #2
ID : 3
Format : AC-3
Format/Info : Audio Coding 3
Mode extension : CM (complete main)
Format settings, Endianness : Big
Codec ID : A_AC3
Duration : 1h 32mn
Bit rate mode : Constant
Bit rate : 192 Kbps
Channel(s) : 2 channels
Channel positions : Front: L R
Sampling rate : 48.0 KHz
Bit depth : 16 bits
Compression mode : Lossy
Stream size : 127 MiB (2%)
Title : MVO #2
Language : Russian
Default : No
Forced : No
Audio #3
ID : 4
Format : AC-3
Format/Info : Audio Coding 3
Mode extension : CM (complete main)
Format settings, Endianness : Big
Codec ID : A_AC3
Duration : 1h 32mn
Bit rate mode : Constant
Bit rate : 192 Kbps
Channel(s) : 2 channels
Channel positions : Front: L R
Sampling rate : 48.0 KHz
Bit depth : 16 bits
Compression mode : Lossy
Stream size : 127 MiB (2%)
Title : AVO (А. Михалёв)
Language : Russian
Default : No
Forced : No
Audio #4
ID : 5
Format : DTS
Format/Info : Digital Theater Systems
Mode : 16
Format settings, Endianness : Big
Codec ID : A_DTS
Duration : 1h 32mn
Bit rate mode : Constant
Bit rate : 1 509 Kbps
Channel(s) : 2 channels
Channel positions : Front: L R
Sampling rate : 48.0 KHz
Bit depth : 24 bits
Compression mode : Lossy
Stream size : 994 MiB (15%)
Title : Original (DTS 2.0 (Blu Ray)
Language : English
Default : No
Forced : No
Audio #5
ID : 6
Format : AC-3
Format/Info : Audio Coding 3
Mode extension : CM (complete main)
Format settings, Endianness : Big
Codec ID : A_AC3
Duration : 1h 32mn
Bit rate mode : Constant
Bit rate : 448 Kbps
Channel(s) : 6 channels
Channel positions : Front: L C R, Side: L R, LFE
Sampling rate : 48.0 KHz
Bit depth : 16 bits
Compression mode : Lossy
Stream size : 295 MiB (4%)
Title : Original (AC3 5.1 )
Language : English
Default : No
Forced : No
Audio #6
ID : 7
Format : AC-3
Format/Info : Audio Coding 3
Mode extension : CM (complete main)
Format settings, Endianness : Big
Codec ID : A_AC3
Duration : 1h 32mn
Bit rate mode : Constant
Bit rate : 256 Kbps
Channel(s) : 2 channels
Channel positions : Front: L R
Sampling rate : 48.0 KHz
Bit depth : 16 bits
Compression mode : Lossy
Stream size : 169 MiB (2%)
Title : Commentary with Mel Brooks, Rudy De Luca and Steve Haberman
Language : English
Default : No
Forced : No
Text #1
ID : 8
Format : UTF-8
Codec ID : S_TEXT/UTF8
Codec ID/Info : UTF-8 Plain Text
Language : Russian
Default : No
Forced : No
Text #2
ID : 9
Format : UTF-8
Codec ID : S_TEXT/UTF8
Codec ID/Info : UTF-8 Plain Text
Title : #1 (Blu Ray)
Language : English
Default : No
Forced : No
Text #3
ID : 10
Format : UTF-8
Codec ID : S_TEXT/UTF8
Codec ID/Info : UTF-8 Plain Text
Title : #2
Language : English
Default : No
Forced : No
Menu
00:00:00.000 : en:Chapter 1
00:11:20.180 : en:Chapter 2
00:22:37.398 : en:Chapter 3
00:37:07.809 : en:Chapter 4
00:51:12.153 : en:Chapter 5
01:00:08.438 : en:Chapter 6
01:09:35.004 : en:Chapter 7
01:16:34.340 : en:Chapter 8

Log x264

x264 [info]: frame I:955 Avg QP:17.51 size: 96026
x264 [info]: frame P:24050 Avg QP:18.62 size: 55982
x264 [info]: frame B:107489 Avg QP:19.85 size: 32875
x264 [info]: consecutive B-frames: 1.0% 0.8% 2.8% 13.2% 12.8% 48.9% 6.2% 3.5% 10.7%
x264 [info]: encoded 132494 frames, 5.88 fps, 7197.58 kb/s, duration 6:15:45.63

Скриншоты


WEB-DL 720p vs ENCODE

-------------- WEB-DL 720p ----------------------------------- ENCODE -----------------





_________________
Показать сообщения:    

Текущее время: Сегодня 04:41

Часовой пояс: GMT



Вы не можете начинать темы
Вы не можете отвечать на сообщения
Вы не можете редактировать свои сообщения
Вы не можете удалять свои сообщения
Вы не можете голосовать в опросах
Вы не можете прикреплять файлы к сообщениям
Вы не можете скачивать файлы
Наши партнеры: интернет магазин Ивановского трикотажа textilla.ru