Важное объявление!
У Нас Все раздачи мультитрекерные, при нуле пиров в релизах, можете смело вставать на закачку!
 
Автор Сообщение

HUNTER

Стаж:
4 года 4 месяца
Сообщений:
56733

Репутация: 101

[+] [-]
Вне форума [Профиль] [ЛС]

Жестокий ручей / Бухта мести / Mean Creek
Страна: США
Студия: Whitewater Films
Жанр: драма, триллер
Год выпуска: 2004
Продолжительность: 01:29:45
Перевод: Профессиональный (двухголосый закадровый) студия Elrom
Cубтитры: русские, английские
Оригинальная аудиодорожка: английский
Режиссер: Якоб Аарон Эстес / Jacob Aaron Estes
В ролях: Рори Калкин, Скотт Мехловиц, Райан Келли, Тревор Морган, Джош Пек, Карли Шредер, Брэндон Уильямс, Раиса Флеминг, Хит Лоурвуд, Райан Петерсон и др.
Описание: Когда его младший брат Сэм возвращается домой избитым, старшеклассник Рокки решает отомстить школьному задире Джорджу. Вместе с друзьями он придумывает план — пригласить Джорджа на лодочную прогулку якобы в честь дня рождения Сэма, на спор уговорить парня раздеться и отправить его домой нагишом. Но когда ребята выезжают на реку, у них появляются сомнения…
II Сэмпл II IMDB II
Доп. информация:
За перевод студии Elrom спасибо -DaRkY-
За русские субтитры спасибо v5485268
Тип релиза: WEB-DL 1080p
Контейнер: MKV
Видео: AVC / 1918x1080 / 16:9 / 23.976fps / Bit rate 5144Kbps
Аудио 1: AC3 / 48.0 KHz / 6ch. / 448kbps / rus / DVO / студия Elrom
Аудио 2: AC3 / 48.0 KHz / 6ch. / 384kbps / eng
Формат субтитров: softsub (SRT)

MediaInfo

Общее
Уникальный идентификатор : 238575001906822296387871009390096475106 (0xB37BDFBF7A25033F8AF5B59CA7E6E3E2)
Полное имя : G:\!!!_torrent\Mean.Creek.2004.WEB-DL.1080p_by_vedigo.mkv
Формат : Matroska
Версия формата : Version 4 / Version 2
Размер файла : 3,75 Гбайт
Продолжительность : 1 ч. 29 м.
Общий поток : 5978 Кбит/сек
Название фильма : Mean.Creek.2004.WEB-DL.1080p_by_vedigo
Дата кодирования : UTC 2015-12-11 01:18:33
Программа кодирования : mkvmerge v8.6.1 ('Flying') 64bit
Библиотека кодирования : libebml v1.3.3 + libmatroska v1.4.4
Видео
Идентификатор : 1
Формат : AVC
Формат/Информация : Advanced Video Codec
Профиль формата : High@L4
Параметр CABAC формата : Да
Параметр ReFrames формата : 4 кадра
Идентификатор кодека : V_MPEG4/ISO/AVC
Продолжительность : 1 ч. 29 м.
Битрейт : 5144 Кбит/сек
Ширина : 1918 пикселей
Высота : 1080 пикселей
Соотношение сторон : 16:9
Режим частоты кадров : Постоянный
Частота кадров : 23,976 (23976/1000) кадра/сек
Цветовое пространство : YUV
Субдискретизация насыщенности : 4:2:0
Битовая глубина : 8 бит
Тип развёртки : Прогрессивная
Бит/(Пиксели*Кадры) : 0.104
Размер потока : 3,22 Гбайт (86%)
Заголовок : Mean.Creek.2004.WEB-DL.1080p_by_vedigo
Default : Да
Forced : Нет
Цветовой диапазон : Limited
Основные цвета : BT.709
Характеристики трансфера : BT.709
Коэффициенты матрицы : BT.709
Аудио #1
Идентификатор : 2
Формат : AC-3
Формат/Информация : Audio Coding 3
Расширение режима : CM (complete main)
Параметр Endianness формата : Big
Идентификатор кодека : A_AC3
Продолжительность : 1 ч. 29 м.
Вид битрейта : Постоянный
Битрейт : 448 Кбит/сек
Каналы : 6 каналов
Расположение каналов : Front: L C R, Side: L R, LFE
Частота : 48,0 КГц
Частота кадров : 31,250 кадров/сек (1536 spf)
Метод сжатия : С потерями
Размер потока : 288 Мбайт (7%)
Заголовок : DVO @ студия Elrom
Язык : Russian
Default : Да
Forced : Нет
Аудио #2
Идентификатор : 3
Формат : AC-3
Формат/Информация : Audio Coding 3
Расширение режима : CM (complete main)
Параметр Endianness формата : Big
Идентификатор кодека : A_AC3
Продолжительность : 1 ч. 29 м.
Вид битрейта : Постоянный
Битрейт : 384 Кбит/сек
Каналы : 6 каналов
Расположение каналов : Front: L C R, Side: L R, LFE
Частота : 48,0 КГц
Частота кадров : 31,250 кадров/сек (1536 spf)
Метод сжатия : С потерями
Размер потока : 247 Мбайт (6%)
Заголовок : original
Язык : English
Default : Нет
Forced : Нет
Текст #1
Идентификатор : 4
Формат : UTF-8
Идентификатор кодека : S_TEXT/UTF8
Идентификатор кодека/Информация : UTF-8 Plain Text
Продолжительность : 1 ч. 25 м.
Битрейт : 90 бит/сек
Count of elements : 513
Размер потока : 56,7 Кбайт (0%)
Заголовок : subtitle rus
Язык : Russian
Default : Нет
Forced : Нет
Текст #2
Идентификатор : 5
Формат : UTF-8
Идентификатор кодека : S_TEXT/UTF8
Идентификатор кодека/Информация : UTF-8 Plain Text
Продолжительность : 1 ч. 24 м.
Битрейт : 50 бит/сек
Count of elements : 944
Размер потока : 30,9 Кбайт (0%)
Заголовок : subtitle eng
Язык : English
Default : Нет
Forced : Нет
Меню
00:00:00.000 : en:Don't Touch My Camera!
00:04:01.000 : en:If You Could Snap Your Fingers...
00:14:04.000 : en:Millie's Questions
00:17:55.000 : en:Making A Documentary
00:22:57.000 : en:Into The Woods
00:30:25.000 : en:A Beautiful Day
00:39:01.000 : en:Truth Or Dare
00:54:24.000 : en:The Aftermath
01:02:09.000 : en:The Burial
01:09:43.000 : en:Going Home
01:23:35.000 : en:George's Last Video
01:26:33.000 : en:End Credits

Скриншоты



_________________
Показать сообщения:    

Текущее время: Сегодня 23:05

Часовой пояс: GMT



Вы не можете начинать темы
Вы не можете отвечать на сообщения
Вы не можете редактировать свои сообщения
Вы не можете удалять свои сообщения
Вы не можете голосовать в опросах
Вы не можете прикреплять файлы к сообщениям
Вы не можете скачивать файлы