Важное объявление!
У Нас Все раздачи мультитрекерные, при нуле пиров в релизах, можете смело вставать на закачку!
 
Автор Сообщение

HUNTER

Стаж:
4 года 4 месяца
Сообщений:
56853

Репутация: 101

[+] [-]
Вне форума [Профиль] [ЛС]

Жестокие игры 3 / Cruel Intentions 3
Страна: США
Студия: Newmarket Capital Group LLC и др.
Жанр: драма
Год выпуска: 2004
Продолжительность: 01:25:07
Перевод: Профессиональный (многоголосый закадровый) Видеосервис
Перевод 2: Профессиональный (многоголосый закадровый)
Cубтитры: английские
Оригинальная аудиодорожка: английский
Режиссер: Скотт Зил / Scott Ziehl
В ролях: Керр Смит, Кристина Анапау, Натан Уэварингтон, Мелисса Ивонн Льюис, Натали Рэмси, Томас Скотт Паркер, Майкл Пембертон, Тара Кэрролл, Чарли Вебер, Алекс Доннелли
Описание: Их любовным интригам нет конца… Их коварный план соблазнить и бросить двух доверчивых студенток не увенчался особым успехом, и тогда Джейсон и Патрик — два самых распущенных студента Колледжа Престридж — обратили свой взгляд на «приз», более интригующий и заманчивый — Касси Мертей, женщину холодную и расчетливую, которая приоткрывает им новый мир наслаждения и боли.
Доп. информация: Многоголоска 5.1, которая находится в DVD и рипах в разных битрейтах(384 и 448 кб) одна и та же и по факту оказалась дутой.

Sample
Тип релиза: WEB-DL 720p
Контейнер: MKV
Видео: MPEG4 AVC Video, H264, 16:9, 1278x720, 23.976 fps, 3899 kbps
Аудио: Russian (AC3, 2 ch, 192 kbps, 16 bits, 48.0 KHz) - Видеосервис
Аудио 2: Russian (AC3, 2 ch, 192 kbps, 16 bits, 48.0 KHz) - MVO
Аудио 3: English (AC3, 6 ch, 384 kbps, 16 bits, 48.0 KHz) - оригинал
Формат субтитров: softsub (SRT)

MediaInfo

General
Unique ID : 189327533223188965861295496658603582203 (0x8E6F2813DE072598A3DD9A9CF8D5A2FB)
Complete name : L:\Cruel Intentions 3 2004 WEB-DL 720p.mkv
Format : Matroska
Format version : Version 4 / Version 2
File size : 2.83 GiB
Duration : 1h 25mn
Overall bit rate : 4 762 Kbps
Encoded date : UTC 2016-02-17 09:34:23
Writing application : mkvmerge v6.1.0 ('Old Devil') built on Mar 2 2013 14:32:37
Writing library : libebml v1.3.0 + libmatroska v1.4.0
Video
ID : 1
Format : AVC
Format/Info : Advanced Video Codec
Format profile : High@L3.1
Format settings, CABAC : No
Format settings, ReFrames : 2 frames
Codec ID : V_MPEG4/ISO/AVC
Duration : 1h 25mn
Bit rate : 3 899 Kbps
Width : 1 278 pixels
Height : 720 pixels
Display aspect ratio : 16:9
Frame rate mode : Constant
Frame rate : 23.976 fps
Color space : YUV
Chroma subsampling : 4:2:0
Bit depth : 8 bits
Scan type : Progressive
Bits/(Pixel*Frame) : 0.177
Stream size : 2.32 GiB (82%)
Language : English
Default : Yes
Forced : No
Color primaries : BT.709
Transfer characteristics : BT.709
Matrix coefficients : BT.709
Audio #1
ID : 2
Format : AC-3
Format/Info : Audio Coding 3
Mode extension : CM (complete main)
Format settings, Endianness : Big
Codec ID : A_AC3
Duration : 1h 25mn
Bit rate mode : Constant
Bit rate : 192 Kbps
Channel count : 2 channels
Channel positions : Front: L R
Sampling rate : 48.0 KHz
Bit depth : 16 bits
Compression mode : Lossy
Stream size : 117 MiB (4%)
Title : Видеосервис
Language : Russian
Default : Yes
Forced : No
Audio #2
ID : 3
Format : AC-3
Format/Info : Audio Coding 3
Mode extension : CM (complete main)
Format settings, Endianness : Big
Codec ID : A_AC3
Duration : 1h 25mn
Bit rate mode : Constant
Bit rate : 192 Kbps
Channel count : 2 channels
Channel positions : Front: L R
Sampling rate : 48.0 KHz
Bit depth : 16 bits
Compression mode : Lossy
Stream size : 117 MiB (4%)
Language : Russian
Default : No
Forced : No
Audio #3
ID : 4
Format : AC-3
Format/Info : Audio Coding 3
Mode extension : CM (complete main)
Format settings, Endianness : Big
Codec ID : A_AC3
Duration : 1h 25mn
Bit rate mode : Constant
Bit rate : 384 Kbps
Channel count : 6 channels
Channel positions : Front: L C R, Side: L R, LFE
Sampling rate : 48.0 KHz
Bit depth : 16 bits
Compression mode : Lossy
Stream size : 234 MiB (8%)
Language : English
Default : No
Forced : No
Text
ID : 5
Format : UTF-8
Codec ID : S_TEXT/UTF8
Codec ID/Info : UTF-8 Plain Text
Language : English
Default : No
Forced : No
Menu
00:00:00.000 : en:Start
00:04:34.000 : en:Patrick Bates
00:06:10.000 : en:Roommates
00:07:22.000 : en:The Welcoming Committee
00:09:08.000 : en:Sophomore Upper-Class
00:11:07.000 : en:The First Wager
00:14:46.000 : en:"You interest me."
00:16:48.000 : en:Seduction of the Innocent
00:18:48.000 : en:A Date With Christopher
00:22:09.000 : en:Someone as Evil as Cassie
00:24:50.000 : en:Alison
00:27:18.000 : en:Night Game
00:29:09.000 : en:The Second Wager
00:32:30.000 : en:Pier Preservation Fundraiser
00:36:31.000 : en:The "Sick Grandma" Ploy
00:38:27.000 : en:"Alison, I love you."
00:41:02.000 : en:Waiting For Mr. Right
00:46:10.000 : en:The Carmel Field Trip
00:50:17.000 : en:Memories are Made of This
00:51:27.000 : en:Master & Slave
00:55:37.000 : en:"I cheated on David."
00:56:35.000 : en:Blackmailed
01:02:23.000 : en:In Love at Last
01:05:12.000 : en:Master of Pain and Pleasure
01:07:39.000 : en:The Final Wager
01:09:26.000 : en:The Prize in the Little Contest
01:13:44.000 : en:What Goes Around Comes Around
01:18:35.000 : en:Back in the Game

Скриншоты


_________________
Показать сообщения:    

Текущее время: Сегодня 11:57

Часовой пояс: GMT



Вы не можете начинать темы
Вы не можете отвечать на сообщения
Вы не можете редактировать свои сообщения
Вы не можете удалять свои сообщения
Вы не можете голосовать в опросах
Вы не можете прикреплять файлы к сообщениям
Вы не можете скачивать файлы
Наши партнеры: интернет магазин Ивановского трикотажа textilla.ru