Важное объявление!
У Нас Все раздачи мультитрекерные, при нуле пиров в релизах, можете смело вставать на закачку!
 
Автор Сообщение

HUNTER

Стаж:
4 года 4 месяца
Сообщений:
56765

Репутация: 101

[+] [-]
Вне форума [Профиль] [ЛС]

Женщина озера / La donna del lago / The Lady of the Lake / The Possessed
Страна: Италия
Жанр: триллер, драма, криминал, детектив
Год выпуска: 1965
Продолжительность: 01:25:16
Перевод: Одноголосый закадровый - Stalk
Cубтитры: Russian, English, German
Оригинальная аудиодорожка: итальянский-Режиссер: Луиджи Баццони / Luigi Bazzoni, Франко Росселлини / Franco Rossellini-В ролях: Питер Болдуин, Сальво Рандоне, Валентина Кортезе, Пиа Линдстрем, Пьер Джованни Анчизи, Эннио Бальбо, Анна-Мария Герарди, Бруно Шипиони, Марио Лорентини, Витторио Дузе, Филипп Леруа, Вирна Лизи-Описание: В один итальянский городок, стоящий на берегу озера, приезжает писатель, сеньор Бернард. Данный момент нельзя назвать очень удачным в его жизни — он расстается с женщиной, которая его очень любит и едет в этот городок, чтобы повидать девушку, с которой они встретились там пару лет назад. Он очень ждет этой встречи, но приехав, он узнает что эта девушка, которую звали Тильде мертва. Официальная версия — самоубийство, но по городу ходят упорные слухи, что в смерти ее виновата семья хозяина местного отеля, где поселился сеньор Бернард. Он пытается докопаться до истины чтобы узнать правду о смерти девушки, и правда эта оказывается довольно шокирующей и страшной…-Релиз:
by delia-Качество видео: BDRip | SbR
Формат видео: MKV
Видео: 1280x694 at 23.976 fps, x264@L4.1, ~12810 kbps avg
Аудио 1: Russian: 48 kHz, AC3, 2/0 (L,R) ch, ~192.00 kbps avg |Одноголосый закадровый|
Аудио 2: Italian: 48 kHz/16-bit, Flac 2.0, ~298 .00 kbps avg- -Цитата:
Цитата:

  • Сохранены оригинальные главы как на Blu-ray

MediaInfo

Код:
Format                      : Matroska
Format version              : Version 4 / Version 2
File size                   : 7.92 GiB
Duration                    : 1h 25mn
Overall bit rate mode       : Variable
Overall bit rate            : 13.3 Mbps
Encoded date                : UTC 2016-08-11 19:31:59
Writing application         : mkvmerge v8.3.0 ('Over the Horizon') 64bit
Writing library             : libebml v1.3.1 + libmatroska v1.4.2
Cover                       : Yes
Attachments                 : cover.jpg
Video
ID                          : 1
Format                      : AVC
Format/Info                 : Advanced Video Codec
Format profile              : High@L4.1
Format settings, CABAC      : Yes
Format settings, ReFrames   : 9 frames
Codec ID                    : V_MPEG4/ISO/AVC
Duration                    : 1h 25mn
Bit rate                    : 12.8 Mbps
Width                       : 1 280 pixels
Height                      : 694 pixels
Display aspect ratio        : 1.85:1
Frame rate mode             : Constant
Frame rate                  : 23.976 (23976/1000) fps
Color space                 : YUV
Chroma subsampling          : 4:2:0
Bit depth                   : 8 bits
Scan type                   : Progressive
Bits/(Pixel*Frame)          : 0.601
Stream size                 : 7.63 GiB (96%)
Writing library             : x264 core 148 r2705+54 9f484c1 t_mod_Custom [8-bit@all X86_64]
Encoding settings           : cabac=1 / ref=9 / deblock=1:-3:-3 / analyse=0x3:0x133 / me=umh / subme=10 / psy=1 / fade_compensate=0.00 / psy_rd=1.05:0.05 / mixed_ref=1 / me_range=32 / chroma_me=1 / trellis=2 / 8x8dct=1 / cqm=0 / deadzone=21,11 / fast_pskip=0 / chroma_qp_offset=-3 / threads=6 / lookahead_threads=1 / sliced_threads=0 / nr=0 / decimate=1 / interlaced=0 / bluray_compat=0 / constrained_intra=0 / fgo=0 / bframes=8 / b_pyramid=2 / b_adapt=2 / b_bias=0 / direct=3 / weightb=1 / open_gop=0 / weightp=2 / keyint=250 / keyint_min=23 / scenecut=40 / intra_refresh=0 / rc_lookahead=60 / rc=crf / mbtree=0 / crf=17.0000 / qcomp=0.55 / qpmin=0:0:0 / qpmax=69:69:69 / qpstep=4 / vbv_maxrate=62500 / vbv_bufsize=78125 / crf_max=0.0 / nal_hrd=none / filler=0 / ip_ratio=1.30 / pb_ratio=1.20 / aq=1:0.65 / aq-sensitivity=10.00 / aq-factor=1.00:1.00:1.00 / aq2=1:0.60 / aq2-sensitivity=15.00 / aq2-factor=1.00:1.00:1.00 / aq3=1:[0.50:0.50]:[0.50:0.50]:[0.50:0.50]:[0.50:0.50] / aq3-sensitivity=10.00 / aq3-factor=[1.00:1.00]:[1.00:1.00]:[1.00:1.00] / aq3-boundary=192:64:24
Language                    : English
Default                     : Yes
Forced                      : No
Color range                 : Limited
Color primaries             : BT.709
Transfer characteristics    : BT.709
Matrix coefficients         : BT.709
Audio #1
ID                          : 2
Format                      : AC-3
Format/Info                 : Audio Coding 3
Mode extension              : CM (complete main)
Format settings, Endianness : Big
Codec ID                    : A_AC3
Duration                    : 1h 25mn
Bit rate mode               : Constant
Bit rate                    : 192 Kbps
Channel(s)                  : 2 channels
Channel positions           : Front: L R
Sampling rate               : 48.0 KHz
Frame rate                  : 31.250 fps (1536 spf)
Compression mode            : Lossy
Stream size                 : 117 MiB (1%)
Title                       : Одноголосый закадровый
Language                    : Russian
Default                     : Yes
Forced                      : No
Audio #2
ID                          : 3
Format                      : FLAC
Format/Info                 : Free Lossless Audio Codec
Codec ID                    : A_FLAC
Duration                    : 1h 25mn
Bit rate mode               : Variable
Bit rate                    : 298 Kbps
Channel(s)                  : 2 channels
Channel positions           : Front: L R
Sampling rate               : 48.0 KHz
Frame rate                  : 11.719 fps (4096 spf)
Bit depth                   : 16 bits
Stream size                 : 182 MiB (2%)
Writing library             : libFLAC 1.2.1 (UTC 2007-09-17)
Language                    : Italian
Default                     : No
Forced                      : No
Text #1
ID                          : 4
Format                      : UTF-8
Codec ID                    : S_TEXT/UTF8
Codec ID/Info               : UTF-8 Plain Text
Duration                    : 1h 24mn
Bit rate                    : 73 bps
Count of elements           : 757
Stream size                 : 45.3 KiB (0%)
Language                    : Russian
Default                     : No
Forced                      : No
Text #2
ID                          : 5
Format                      : UTF-8
Codec ID                    : S_TEXT/UTF8
Codec ID/Info               : UTF-8 Plain Text
Duration                    : 1h 24mn
Bit rate                    : 38 bps
Count of elements           : 765
Stream size                 : 23.8 KiB (0%)
Language                    : English
Default                     : No
Forced                      : No
Text #3
ID                          : 6
Format                      : UTF-8
Codec ID                    : S_TEXT/UTF8
Codec ID/Info               : UTF-8 Plain Text
Duration                    : 1h 24mn
Bit rate                    : 50 bps
Count of elements           : 710
Stream size                 : 31.1 KiB (0%)
Language                    : German
Default                     : No
Forced                      : No
Menu
00:00:00.000                : en:00:00:00.000
00:03:19.657                : en:00:03:19.657
00:09:35.365                : en:00:09:35.365
00:14:16.730                : en:00:14:16.730
00:16:34.076                : en:00:16:34.076
00:21:09.643                : en:00:21:09.643
00:28:12.231                : en:00:28:12.231
00:33:20.080                : en:00:33:20.080
00:38:17.378                : en:00:38:17.378
00:43:28.606                : en:00:43:28.606
00:47:56.789                : en:00:47:56.789
00:55:54.768                : en:00:55:54.768
01:01:28.309                : en:01:01:28.309
01:08:16.675                : en:01:08:16.675
01:13:01.710                : en:01:13:01.710
01:16:54.775                : en:01:16:54.775

Скриншоты


_________________
Показать сообщения:    

Текущее время: Сегодня 18:50

Часовой пояс: GMT



Вы не можете начинать темы
Вы не можете отвечать на сообщения
Вы не можете редактировать свои сообщения
Вы не можете удалять свои сообщения
Вы не можете голосовать в опросах
Вы не можете прикреплять файлы к сообщениям
Вы не можете скачивать файлы