Важное объявление!
У Нас Все раздачи мультитрекерные, при нуле пиров в релизах, можете смело вставать на закачку!
 
Автор Сообщение

HUNTER

Стаж:
4 года 4 месяца
Сообщений:
56822

Репутация: 101

[+] [-]
Вне форума [Профиль] [ЛС]

Женский космос
Год выпуска: 2013
Страна: Россия
Жанр: Научно-познавательный
Продолжительность: 00:39:00
Перевод: Не требуется
Русские субтитры: нет
Производство: ФГУП "ЦЭНКИ" студия "Русский космос"
Авторы сценария: Наталья Бурцева, Алексей Самолетов

Режиссер: Алексей Китайцев
Описание.
В освоении космоса представительниц прекрасного пола, почему-то, намного меньше, чем мужчин. Женские космические программы разрешали, потом запрещали, потом снова открывали. В этом фильме мы на примере семи женщин - четырех россиянок и трех американок, постараемся рассказать об истории "женского космоса". Как чувствует себя женщина в космосе? Как у нее складывается отношения с мужским коллективом? Зачем женщине нужна на орбите нагайка?
Елена Серова - четвертая российская женщина-космонавт собирается лететь на МКС в 2014 году. Первое и самое тяжелое испытание - это долгие расставания с мужем и маленькой дочкой. Ее муж, Марк, расскажет о том, каково это - быть мужем космонавта.
Пегги Уитсон - первая в истории женщина-командир Международной космической станции, Николь Стотт - астронавт-исследователь, дважды побывавшая в космосе - мама русского мальчика Романа, Кэтрин Колман, блестяще осуществившая стыковку нового американского корабля "Дракон" с МКС, Елена Кондакова - третья российская женщина - космонавт, работающая теперь главой торгового представительства России в Швейцарии ... Все они - героини нашего фильма.

Доп. информация: Релиз:
Сэмпл: http://multi-up.com/855955
качество: SATRip
формат: AVI
видеокодек: DivX
аудиокодек: MP3
Видео: 704x400 (16х9), 25 fps, DivX 5, 1800 kbps (0.26 b/рх)
Аудио: 48000Hz, 2 ch, MPEG Layer-3, 128 kbps

Список выпусков/серий

1 серия

MediaInfo

General
Complete name : D:\
Format : AVI
Format/Info : Audio Video Interleave
File size : 540 MiB
Duration : 39mn 0s
Overall bit rate : 1 936 Kbps
Writing library : VirtualDub build 32842/release
Video
ID : 0
Format : MPEG-4 Visual
Format settings, BVOP : No
Format settings, QPel : No
Format settings, GMC : No warppoints
Format settings, Matrix : Default (H.263)
Codec ID : DX50
Codec ID/Hint : DivX 5
Duration : 39mn 0s
Bit rate : 1 799 Kbps
Width : 704 pixels
Height : 400 pixels
Display aspect ratio : 16:9
Frame rate : 25.000 fps
Color space : YUV
Chroma subsampling : 4:2:0
Bit depth : 8 bits
Scan type : Progressive
Compression mode : Lossy
Bits/(Pixel*Frame) : 0.255
Stream size : 502 MiB (93%)
Writing library : DivX 5.2.1 (WaffleDay) (UTC 2004-09-08)
Audio
ID : 1
Format : MPEG Audio
Format version : Version 1
Format profile : Layer 3
Mode : Joint stereo
Mode extension : MS Stereo
Codec ID : 55
Codec ID/Hint : MP3
Duration : 39mn 0s
Bit rate mode : Constant
Bit rate : 128 Kbps
Channel(s) : 2 channels
Sampling rate : 48.0 KHz
Compression mode : Lossy
Stream size : 35.7 MiB (7%)
Alignment : Split accross interleaves
Interleave, duration : 40 ms (1.00 video frame)
Interleave, preload duration : 500 ms

Скриншоты


_________________
Показать сообщения:    

Текущее время: Сегодня 23:14

Часовой пояс: GMT



Вы не можете начинать темы
Вы не можете отвечать на сообщения
Вы не можете редактировать свои сообщения
Вы не можете удалять свои сообщения
Вы не можете голосовать в опросах
Вы не можете прикреплять файлы к сообщениям
Вы не можете скачивать файлы