Важное объявление!
У Нас Все раздачи мультитрекерные, при нуле пиров в релизах, можете смело вставать на закачку!
 
Автор Сообщение

HUNTER

Стаж:
4 года 4 месяца
Сообщений:
56719

Репутация: 101

[+] [-]
Вне форума [Профиль] [ЛС]

Жених- -Страна: Россия
Жанр: комедия
Год выпуска: 2016
Производство: «Solaris Promo Production, ТНТ»
Продолжительность: 01:28:30
Оригинальная аудиодорожка: русский
Cубтитры: нет-Режиссер: Александр Незлобин-В ролях:
Сергей Светлаков, Светлана Смирнова-Марцинкевич, Филипп Рейнхардт, Ольга Картункова, Дмитрий Никулин,
Наталья Паршенкова, Сергей Бурунов, Александр Демидов, Георгий Дронов, Тимофей Зайцев-Описание:
Как немец в Россию 9 мая приезжал жениться на русской красавице Алене, с которой они познакомились в Берлине. Счастливая пара едет в деревню — знакомиться с родственниками невесты. Однако туда же приезжает и бывший муж Алены — Толя, который неожиданно решил вернуть жену. Все оборачивается романтическим соперничеством, в которое кроме Толи и Гельмута, вмешиваются их друзья, родственники, а также другие жители деревни — бизнесмен Ерофеев, купивший дом по соседству, заблудившийся танкист и даже змея.-Возраст: 12+-Качество: WEB-DL 1080p
Формат: MKV
Видео кодек: AVC
Аудио кодек: AC3, AAC

Видео: AVC, 1920 х 1080 (16:9), 25,000 кадр/сек, 5 171 Кбит/сек, 0.100 bit/pixel
Аудио 1: AC3, 48000 Hz, 384 Kbps, 2 канала
Аудио 2: AAC, 48000 Hz, 155 Kbps, 2 канала
-

MediaInfo

General
Unique ID : 178464881991002504735117964392372920332 (0x86431605B8A93FC4A00C2760E4A4600C)
Complete name : D:\Раздачи\Жених WEB-DL (1080p)\Жених WEB-DL (1080p).mkv
Format : Matroska
Format version : Version 2
File size : 3.53 GiB
Duration : 1h 28mn
Overall bit rate : 5 713 Kbps
Encoded date : UTC 2016-10-12 20:08:47
Writing application : mkvmerge v8.3.0 ('Over the Horizon') 64bit
Writing library : libebml v1.3.1 + libmatroska v1.4.2
Video
ID : 1
Format : AVC
Format/Info : Advanced Video Codec
Format profile : High@L4
Format settings, CABAC : Yes
Format settings, ReFrames : 4 frames
Codec ID : V_MPEG4/ISO/AVC
Duration : 1h 28mn
Bit rate : 5 171 Kbps
Width : 1 920 pixels
Height : 1 080 pixels
Display aspect ratio : 16:9
Frame rate mode : Constant
Frame rate : 25.000 fps
Color space : YUV
Chroma subsampling : 4:2:0
Bit depth : 8 bits
Scan type : Progressive
Bits/(Pixel*Frame) : 0.100
Stream size : 3.20 GiB (91%)
Language : English
Default : Yes
Forced : No
Color range : Limited
Color primaries : BT.709
Transfer characteristics : BT.709
Matrix coefficients : BT.709
Audio #1
ID : 2
Format : AC-3
Format/Info : Audio Coding 3
Mode extension : CM (complete main)
Format settings, Endianness : Big
Codec ID : A_AC3
Duration : 1h 28mn
Bit rate mode : Constant
Bit rate : 384 Kbps
Channel(s) : 2 channels
Channel positions : Front: L R
Sampling rate : 48.0 KHz
Frame rate : 31.250 fps (1536 spf)
Compression mode : Lossy
Stream size : 243 MiB (7%)
Language : Russian
Default : Yes
Forced : No
Audio #2
ID : 3
Format : AAC
Format/Info : Advanced Audio Codec
Format profile : LC
Codec ID : A_AAC
Duration : 1h 28mn
Bit rate : 155 Kbps
Channel(s) : 2 channels
Channel positions : Front: L R
Sampling rate : 48.0 KHz
Frame rate : 46.875 fps (1024 spf)
Compression mode : Lossy
Stream size : 98.4 MiB (3%)
Language : Russian
Default : No
Forced : No
Menu
00:00:00.000 : en:Глава 1
00:05:31.720 : en:Глава 2
00:11:06.040 : en:Глава 3
00:16:19.240 : en:Глава 4
00:22:53.920 : en:Глава 5
00:28:27.480 : en:Глава 6
00:34:11.640 : en:Глава 7
00:40:35.040 : en:Глава 8
00:45:40.840 : en:Глава 9
00:50:53.120 : en:Глава 10
00:57:05.800 : en:Глава 11
01:02:49.040 : en:Глава 12
01:08:02.080 : en:Глава 13
01:14:05.960 : en:Глава 14
01:19:45.360 : en:Глава 15

Скриншоты

-Раздаю до первых 5-ти скачавших, на раздачи не возвращаюсь...-

_________________
Показать сообщения:    

Текущее время: Сегодня 19:39

Часовой пояс: GMT



Вы не можете начинать темы
Вы не можете отвечать на сообщения
Вы не можете редактировать свои сообщения
Вы не можете удалять свои сообщения
Вы не можете голосовать в опросах
Вы не можете прикреплять файлы к сообщениям
Вы не можете скачивать файлы