Важное объявление!
У Нас Все раздачи мультитрекерные, при нуле пиров в релизах, можете смело вставать на закачку!
 
Автор Сообщение

HUNTER

Стаж:
4 года 4 месяца
Сообщений:
56722

Репутация: 101

[+] [-]
Вне форума [Профиль] [ЛС]

Железный человек и Капитан Америка: Союз героев
Iron Man and Captain America: Heroes United
Страна: США
Жанр: мультфильм, фантастика, боевик
Продолжительность: 01:10:56
Год выпуска: 2014-Перевод: Любительский (Многоголосый закадровый) ~ DuBDraG ProJECT, Evolution Studio
Русские субтитры: нет
Режиссёр: Лео Райли / Leo Riley-Роли озвучивали: Адриан Пасдар, Роджер Крэйг Смит, Фред Татаскьор, Дэвид Кэй, Клэнси Браун, Лайам О’Брайэн, Робин Аткин Даунс, Ди Брэдли Бейкер-Описание: Красный Череп намерен захватить весь мир и подчинить себе население планеты, а капитан Америка в свою очередь будет предпринимать меры, чтобы не дать коварным планам осуществиться. Правда, в этот раз действовать Красный Череп намерен не сам, с ним в сговор вступает Таксамастер, у которого имеются к Кэпу собственные претензии, и поэтому он хочет отомстить любой ценой. Поначалу коварные планы врагов человечества начинают осуществляться. Таксамастеру удается заманить капитана в ловушку и одновременно поживиться в лаборатории, где трудится Тони Старк. Но на помощь главному герою приходит Железный человек, и теперь злодеям не поздоровится – новой угрозе будет дан достойный отпор.-Релиз: | | -• Работа с WEB-DL и звуком -Azureus--Качество: WEB-DLRip
Формат: AVI
Видео: 688x384 (1.79:1), 23,976 fps, XviD 66 ~1 333 kbps avg, 0.21 bit/pixel
Аудио: 48.0 kHz, MPEG Layer 3, 2/0 (L,R) ch, ~128 kbps
Субтитры: отсутствуют

MI


General
Complete name : D:\incarcare\rip gata\Iron.Man.and.Captain.America.Heroes.United.2014.WEB-DLRip.746.avi
Format : AVI
Format/Info : Audio Video Interleave
File size : 746 MiB
Duration : 1h 10mn
Overall bit rate : 1 471 Kbps
Writing application : VirtualDubMod 1.5.10.2 (build 2540/release)
Writing library : VirtualDubMod build 2540/release
Video
ID : 0
Format : MPEG-4 Visual
Format profile : Advanced Simple@L5
Format settings, BVOP : 1
Format settings, QPel : No
Format settings, GMC : No warppoints
Format settings, Matrix : Custom
Codec ID : XVID
Codec ID/Hint : XviD
Duration : 1h 10mn
Bit rate : 1 333 Kbps
Width : 688 pixels
Height : 384 pixels
Display aspect ratio : 16:9
Frame rate : 23.976 fps
Color space : YUV
Chroma subsampling : 4:2:0
Bit depth : 8 bits
Scan type : Progressive
Compression mode : Lossy
Bits/(Pixel*Frame) : 0.211
Stream size : 677 MiB (91%)
Writing library : XviD 66
Audio
ID : 1
Format : MPEG Audio
Format version : Version 1
Format profile : Layer 3
Codec ID : 55
Codec ID/Hint : MP3
Duration : 1h 10mn
Bit rate mode : Constant
Bit rate : 128 Kbps
Channel(s) : 2 channels
Sampling rate : 48.0 KHz
Compression mode : Lossy
Stream size : 65.0 MiB (9%)
Alignment : Aligned on interleaves
Interleave, duration : 42 ms (1.00 video frame)
Interleave, preload duratio : 504 ms

Скриншоты


_________________
Показать сообщения:    

Текущее время: Сегодня 08:17

Часовой пояс: GMT



Вы не можете начинать темы
Вы не можете отвечать на сообщения
Вы не можете редактировать свои сообщения
Вы не можете удалять свои сообщения
Вы не можете голосовать в опросах
Вы не можете прикреплять файлы к сообщениям
Вы не можете скачивать файлы