Важное объявление!
У Нас Все раздачи мультитрекерные, при нуле пиров в релизах, можете смело вставать на закачку!
 
Автор Сообщение

HUNTER

Стаж:
4 года 4 месяца
Сообщений:
56798

Репутация: 101

[+] [-]
Вне форума [Профиль] [ЛС]

Железный человек 3 / Iron Man 3
Страна: США, Китай
Студия: Fairview Entertainment, Marvel Studios Inc.
Жанр: фантастика, боевик, приключения
Год выпуска: 2013
Продолжительность: 02:10:32
Перевод 1: Профессиональный (дублированный)Disney / Buena Vista
Перевод 2: Авторский (одноголосый закадровый)Живов
Cубтитры: Russian (Forced, full,commentary), Ukrainian (Forced, Full), English (Full, SDH, SDH Colored)
Оригинальная аудиодорожка: английский
Режиссер: Шейн Блэк / Shane Black
В ролях: Роберт Дауни мл., Гвинет Пэлтроу, Дон Чидл, Гай Пирс, Бен Кингсли, Ребекка Холл, Пол Беттани, Джон Фавро, Уильям Сэдлер, Джеймс Бэдж Дэйл
Описание: Когда мир Старка рушится на его глазах по вине неизвестных противников, Тони жаждет найти виновных и свести с ними счеты. Оказавшись в безвыходной ситуации, Старк может рассчитывать только на себя и свою изобретательность, чтобы защитить тех, кто ему дорог. Это становится настоящим испытанием для героя, которому придется не только сражаться с коварным врагом, но и разобраться в себе, чтобы найти ответ на вопрос, который давно его тревожит: что важнее — человек или костюм?

Тип релиза: BDRip 720p[CtrlHD]
Контейнер: MKV
Видео: AVC, 1280x534, 6990 kbps, 23.976 fps
Аудио 1: Russian: 48 kHz, AC3, 3/2 (L,C,R,l,r) + LFE ch, ~640.00 kbps avg |Disney / Buena Vista|
Аудио 2: Ukrainian: 48 kHz, AC3, 3/2 (L,C,R,l,r) + LFE ch, ~384.00 kbps avg |DUB-DVD R5|
Аудио 3: Russian: 48 kHz, AC3, 3/2 (L,C,R,l,r) + LFE ch, ~640.00 kbps avg |Живов|
Аудио 4: English: 48 kHz, AC3, 3/2 (L,C,R,l,r) + LFE ch, ~640.00 kbps avg |Original|
Аудио 5: English: 48 kHz, AC3, 2/0 (L,R) ch, ~192.00 kbps avg |Commentary Shane Black and Drew Pearce|
Чаптеры:есть

x264 log

x264 [info]: frame I:2222 Avg QP:10.62 size:113746
x264 [info]: frame P:44739 Avg QP:12.08 size: 57540
x264 [info]: frame B:140840 Avg QP:12.37 size: 28529
x264 [info]: consecutive B-frames: 3.3% 3.6% 10.3% 23.9% 25.1% 26.3% 7.4%
x264 [info]: encoded 187801 frames, 4.56 fps, 6991.14 kb/s, duration 11:25:41.12

Доп.информация

За перевод Юрия Живова спасибо участникам трекера E-180: Nadoelo, foxlight, пуля, ZeDOK, v1111o, Chistobaev, olegsoleg, User, Guyver, furria62, MyxAmoP, dir, Hattori Hanzo, carnivale, Диммон, dark1982, rammzez, Andrey_Tula, zeleniy, SavineX78, Valen, denis_mgn_1987, Denis2251, YoGuRt-82, Savely, AlBeOne, Kastro, xerman13, GaryH, Iceman

MediaInfo

General
Unique ID : 247639441289880370401300109051446387844 (0xBA4D9F1D3094C75387ED4F862C3B6484)
Complete name : D:\рипы\Iron.Man.3.2013.720p.BluRay.x264-Talian-.mkv
Format : Matroska
Format version : Version 2
File size : 8.65 GiB
Duration : 2h 10mn
Overall bit rate : 9 491 Kbps
Movie name : Iron Man 3-Talian-
Encoded date : UTC 2014-12-11 11:40:43
Writing application : mkvmerge v5.7.0 ('The Whirlwind') built on Jul 8 2012 20:08:51
Writing library : libebml v1.2.3 + libmatroska v1.3.0
Video
ID : 1
Format : AVC
Format/Info : Advanced Video Codec
Format profile : High@L4.1
Format settings, CABAC : Yes
Format settings, ReFrames : 12 frames
Codec ID : V_MPEG4/ISO/AVC
Duration : 2h 10mn
Bit rate : 6 806 Kbps
Width : 1 280 pixels
Height : 534 pixels
Display aspect ratio : 2.40:1
Frame rate : 23.976 fps
Color space : YUV
Chroma subsampling : 4:2:0
Bit depth : 8 bits
Scan type : Progressive
Bits/(Pixel*Frame) : 0.415
Stream size : 6.21 GiB (72%)
Title : CtrlHD
Writing library : x264 core 135 r2345kMod f0c1c53
Encoding settings : cabac=1 / ref=12 / deblock=1:-3:-3 / analyse=0x3:0x113 / me=esa / subme=10 / psy=1 / fade_compensate=0.00 / psy_rd=1.05:0.00 / mixed_ref=1 / me_range=16 / chroma_me=1 / trellis=2 / 8x8dct=1 / cqm=0 / deadzone=21,11 / fast_pskip=0 / chroma_qp_offset=-2 / threads=6 / lookahead_threads=1 / sliced_threads=0 / nr=0 / decimate=0 / interlaced=0 / bluray_compat=0 / constrained_intra=0 / bframes=6 / b_pyramid=2 / b_adapt=2 / b_bias=0 / direct=3 / weightb=1 / open_gop=0 / weightp=2 / keyint=250 / keyint_min=23 / scenecut=40 / intra_refresh=0 / rc_lookahead=60 / rc=crf / mbtree=0 / crf=15.0000 / qcomp=0.80 / qpmin=0 / qpmax=30 / qpstep=4 / vbv_maxrate=20000 / vbv_bufsize=15000 / crf_max=0.0 / nal_hrd=none / ip_ratio=1.20 / pb_ratio=1.10 / aq=1:1.00
Language : English
Default : Yes
Forced : No
Audio #1
ID : 2
Format : AC-3
Format/Info : Audio Coding 3
Mode extension : CM (complete main)
Format settings, Endianness : Big
Codec ID : A_AC3
Duration : 2h 10mn
Bit rate mode : Constant
Bit rate : 640 Kbps
Channel(s) : 6 channels
Channel positions : Front: L C R, Side: L R, LFE
Sampling rate : 48.0 KHz
Bit depth : 16 bits
Compression mode : Lossy
Stream size : 598 MiB (7%)
Title : DUB-Disney / Buena Vista
Language : Russian
Default : Yes
Forced : No
Audio #2
ID : 3
Format : AC-3
Format/Info : Audio Coding 3
Mode extension : CM (complete main)
Format settings, Endianness : Big
Codec ID : A_AC3
Duration : 2h 10mn
Bit rate mode : Constant
Bit rate : 384 Kbps
Channel(s) : 6 channels
Channel positions : Front: L C R, Side: L R, LFE
Sampling rate : 48.0 KHz
Bit depth : 16 bits
Compression mode : Lossy
Stream size : 359 MiB (4%)
Title : DUB-R5
Language : Ukrainian
Default : No
Forced : No
Audio #3
ID : 4
Format : AC-3
Format/Info : Audio Coding 3
Mode extension : CM (complete main)
Format settings, Endianness : Big
Codec ID : A_AC3
Duration : 2h 10mn
Bit rate mode : Constant
Bit rate : 640 Kbps
Channel(s) : 6 channels
Channel positions : Front: L C R, Side: L R, LFE
Sampling rate : 48.0 KHz
Bit depth : 16 bits
Compression mode : Lossy
Stream size : 598 MiB (7%)
Title : AVO-Живов
Language : Russian
Default : No
Forced : No
Audio #4
ID : 5
Format : AC-3
Format/Info : Audio Coding 3
Mode extension : CM (complete main)
Format settings, Endianness : Big
Codec ID : A_AC3
Duration : 2h 10mn
Bit rate mode : Constant
Bit rate : 640 Kbps
Channel(s) : 6 channels
Channel positions : Front: L C R, Side: L R, LFE
Sampling rate : 48.0 KHz
Bit depth : 16 bits
Compression mode : Lossy
Stream size : 598 MiB (7%)
Title : Original
Language : English
Default : No
Forced : No
Audio #5
ID : 6
Format : AC-3
Format/Info : Audio Coding 3
Mode extension : CM (complete main)
Format settings, Endianness : Big
Codec ID : A_AC3
Duration : 2h 10mn
Bit rate mode : Constant
Bit rate : 192 Kbps
Channel(s) : 2 channels
Channel positions : Front: L R
Sampling rate : 48.0 KHz
Bit depth : 16 bits
Compression mode : Lossy
Stream size : 179 MiB (2%)
Title : Audio commentary by Shane Black and Drew Pearce
Language : English
Default : No
Forced : No
Text #1
ID : 7
Format : UTF-8
Codec ID : S_TEXT/UTF8
Codec ID/Info : UTF-8 Plain Text
Title : Sub-forced
Language : Russian
Default : Yes
Forced : No
Text #2
ID : 8
Format : UTF-8
Codec ID : S_TEXT/UTF8
Codec ID/Info : UTF-8 Plain Text
Title : Sub-full
Language : Russian
Default : No
Forced : No
Text #3
ID : 9
Format : UTF-8
Codec ID : S_TEXT/UTF8
Codec ID/Info : UTF-8 Plain Text
Title : Sub-commentary
Language : Russian
Default : No
Forced : No
Text #4
ID : 10
Format : UTF-8
Codec ID : S_TEXT/UTF8
Codec ID/Info : UTF-8 Plain Text
Title : Sub-forced
Language : Ukrainian
Default : No
Forced : No
Text #5
ID : 11
Format : UTF-8
Codec ID : S_TEXT/UTF8
Codec ID/Info : UTF-8 Plain Text
Title : Sub-full
Language : Ukrainian
Default : No
Forced : No
Text #6
ID : 12
Format : UTF-8
Codec ID : S_TEXT/UTF8
Codec ID/Info : UTF-8 Plain Text
Title : Sub-full
Language : English
Default : No
Forced : No
Text #7
ID : 13
Format : UTF-8
Codec ID : S_TEXT/UTF8
Codec ID/Info : UTF-8 Plain Text
Title : Sub-SDH
Language : English
Default : No
Forced : No
Text #8
ID : 14
Format : UTF-8
Codec ID : S_TEXT/UTF8
Codec ID/Info : UTF-8 Plain Text
Title : Sub-SDH Colored
Language : English
Default : No
Forced : No
Menu
00:00:00.000 : en:1. New Year's Eve, 1999
00:04:52.751 : en:2. R&D Department
00:07:55.433 : en:3. The Mandarin
00:12:12.440 : en:4. Killian Returns
00:19:04.101 : en:5. Tony & Pepper at Home
00:23:47.885 : en:6. Happy Follows Savin
00:29:47.703 : en:7. House Attack
00:39:46.384 : en:8. Rose Hill, Tennessee
00:45:56.045 : en:9. Unraveling the Past
00:59:19.639 : en:10. The Mandarin Teaches a Lesson
01:01:56.922 : en:11. Tony Hacks A.I.M.
01:09:24.452 : en:12. Locating the Mandarin
01:18:41.508 : en:13. Captured by Killian
01:23:52.945 : en:14. Attack on Air Force One
01:37:55.995 : en:15. Showdown at the Docks
01:56:18.305 : en:16. New Beginnings
01:59:38.755 : en:17. End Credits

Скриншоты

Source vs Encode



_________________
Показать сообщения:    

Текущее время: Сегодня 21:53

Часовой пояс: GMT



Вы не можете начинать темы
Вы не можете отвечать на сообщения
Вы не можете редактировать свои сообщения
Вы не можете удалять свои сообщения
Вы не можете голосовать в опросах
Вы не можете прикреплять файлы к сообщениям
Вы не можете скачивать файлы