Важное объявление!
У Нас Все раздачи мультитрекерные, при нуле пиров в релизах, можете смело вставать на закачку!
 
Автор Сообщение

HUNTER

Стаж:
4 года 4 месяца
Сообщений:
56790

Репутация: 101

[+] [-]
Вне форума [Профиль] [ЛС]

Железный орёл 3: Асы / Aces: Iron Eagle III
Страна: США, Великобритания
Студия: Carolco Pictures, Seven Arts Pictures, Aces Eagles Productions
Жанр: боевик
Год выпуска: 1992
Продолжительность: 01:39:00
Перевод 1: Профессиональный (многоголосый закадровый) ГТРК Россия
Перевод 2: Авторский (одноголосый закадровый) В. Дохалов
Cубтитры: английские
Оригинальная аудиодорожка: английский
Режиссер: Джон Глен / John Glen
В ролях: Луис Госсет мл., Рэйчел МакЛиш, Пол Фримен, Хорст Буххольц, Кристофер Кейзнов, Сонни Чиба, Фред Долтон Томпсон, Митч Райан, Роб Эстес, Дж. Э. Фримен
Описание: Бывшие нацисты захватили перуанскую деревню и хотят превратить её в опорную базу для своих операций по торговле кокаином. Анне удалось сбежать, она отправилась в США и, встретив там бравого лётчика Чаппи Синклера, попросила о помощи. Конечно, Чаппи не мог отказать. Он обратился к своему начальству за поддержкой, и тут выяснилось, что генерал, с которым Чаппи беседовал, сотрудничает с нацистами, а через базу ВВС США проходит контрабанда наркотиков. Тогда герой привлёк к операции трёх пожилых, но ещё бодрых пилотов. На истребителях времён Второй мировой войны отважные лётчики летят на помощь южноамериканским крестьянам.
II Сэмпл II IMDB II
Доп. информация:
За перевод ГТРК "Россия" спасибо miha2154
За перевод Вартана Дохалова спасибо Zombie Lee
Тип релиза: WEB-DL 720p
Контейнер: MKV
Видео: AVC / 1280x718 / 16:9 / 23.976fps / Bit rate 4009Kbps
Аудио 1: AC3 / 48.0 KHz / 2ch. / 192kbps / rus / mvo / ГТРК "Россия"
Аудио 2: AC3 / 48.0 KHz / 2ch. / 192kbps / rus / avo / Вартан Дохалов
Аудио 3: AAC-LC / 48.0 KHz / 2ch. / 128kbps / eng
Формат субтитров: softsub (SRT)

MediaInfo

Общее
Уникальный идентификатор : 228662899976690521887584431791206073623 (0xAC06DF6441D69043B36FD6345F648517)
Полное имя : H:\!_Torrent\Aces.Iron.Eagle.III.1992.WEB-DL.720p_by_vedigo.mkv
Формат : Matroska
Версия формата : Version 4 / Version 2
Размер файла : 3,11 Гбайт
Продолжительность : 1 ч. 39 м.
Общий поток : 4498 Кбит/сек
Дата кодирования : UTC 2015-08-09 06:07:45
Программа кодирования : mkvmerge v8.2.0 ('World of Adventure') 64bit
Библиотека кодирования : libebml v1.3.1 + libmatroska v1.4.2
DURATION : 01:34:27.382000000
NUMBER_OF_FRAMES : 1262
NUMBER_OF_BYTES : 38715
_STATISTICS_WRITING_APP : mkvmerge v8.2.0 ('World of Adventure') 64bit
_STATISTICS_WRITING_DATE_UTC : 2015-08-09 06:07:45
_STATISTICS_TAGS : BPS DURATION NUMBER_OF_FRAMES NUMBER_OF_BYTES
Видео
Идентификатор : 1
Формат : AVC
Формат/Информация : Advanced Video Codec
Профиль формата : High@L3.1
Параметр CABAC формата : Нет
Параметр ReFrames формата : 2 кадра
Идентификатор кодека : V_MPEG4/ISO/AVC
Продолжительность : 1 ч. 39 м.
Ширина : 1280 пикселей
Высота : 718 пикселей
Соотношение сторон : 16:9
Режим частоты кадров : Постоянный
Частота кадров : 23,976 кадра/сек
Цветовое пространство : YUV
Субдискретизация насыщенности : 4:2:0
Битовая глубина : 8 бит
Тип развёртки : Прогрессивная
Заголовок : Aces.Iron.Eagle.III.1992.WEB-DL.720p_by_vedigo
Default : Да
Forced : Нет
Цветовой диапазон : Limited
Основные цвета : BT.709
Характеристики трансфера : BT.709
Коэффициенты матрицы : BT.709
Аудио #1
Идентификатор : 2
Формат : AC-3
Формат/Информация : Audio Coding 3
Расширение режима : CM (complete main)
Параметр Endianness формата : Big
Идентификатор кодека : A_AC3
Продолжительность : 1 ч. 39 м.
Вид битрейта : Постоянный
Битрейт : 192 Кбит/сек
Каналы : 2 канала
Расположение каналов : Front: L R
Частота : 48,0 КГц
Метод сжатия : С потерями
Размер потока : 136 Мбайт (4%)
Заголовок : MVO @ ГТРК "Россия"
Язык : Russian
Default : Да
Forced : Нет
Аудио #2
Идентификатор : 3
Формат : AC-3
Формат/Информация : Audio Coding 3
Расширение режима : CM (complete main)
Параметр Endianness формата : Big
Идентификатор кодека : A_AC3
Продолжительность : 1 ч. 39 м.
Вид битрейта : Постоянный
Битрейт : 192 Кбит/сек
Каналы : 2 канала
Расположение каналов : Front: L R
Частота : 48,0 КГц
Метод сжатия : С потерями
Размер потока : 136 Мбайт (4%)
Заголовок : AVO @ В. Дохалов
Язык : Russian
Default : Нет
Forced : Нет
Аудио #3
Идентификатор : 4
Формат : AAC
Формат/Информация : Advanced Audio Codec
Профиль формата : LC
Идентификатор кодека : A_AAC
Продолжительность : 1 ч. 39 м.
Каналы : 2 канала
Расположение каналов : Front: L R
Частота : 48,0 КГц
Метод сжатия : С потерями
Заголовок : original
Язык : English
Default : Нет
Forced : Нет
Текст
Идентификатор : 5
Формат : UTF-8
Идентификатор кодека : S_TEXT/UTF8
Идентификатор кодека/Информация : UTF-8 Plain Text
Заголовок : subtitle eng
Язык : English
Default : Нет
Forced : Нет
Меню
00:00:00.000 : en:Chapter 1
00:07:50.000 : en:Chapter 2
00:17:53.000 : en:Chapter 3
00:27:07.000 : en:Chapter 4
00:37:23.000 : en:Chapter 5
00:46:05.000 : en:Chapter 6
00:56:49.000 : en:Chapter 7
01:04:48.000 : en:Chapter 8
01:13:25.000 : en:Chapter 9
01:22:21.000 : en:Chapter 10
01:32:03.000 : en:Chapter 11
01:35:02.000 : en:Chapter 12

Скриншоты



_________________
Показать сообщения:    

Текущее время: Сегодня 18:54

Часовой пояс: GMT



Вы не можете начинать темы
Вы не можете отвечать на сообщения
Вы не можете редактировать свои сообщения
Вы не можете удалять свои сообщения
Вы не можете голосовать в опросах
Вы не можете прикреплять файлы к сообщениям
Вы не можете скачивать файлы