Важное объявление!
У Нас Все раздачи мультитрекерные, при нуле пиров в релизах, можете смело вставать на закачку!
 
Автор Сообщение

HUNTER

Стаж:
4 года 4 месяца
Сообщений:
56829

Репутация: 101

[+] [-]
Вне форума [Профиль] [ЛС]

Железная схватка / Robot Overlords
Страна: Великобритания
Студия: British Film Company
Жанр: Фантастика, боевик, приключения
Год выпуска: 2014
Продолжительность: 01:30:04
Перевод: Профессиональный (многоголосый закадровый)
Cубтитры: Rus, Eng
Оригинальная аудиодорожка: английский
Режиссер: Джон Райт / Jon Wright
В ролях: Джиллиан Андерсон, Бен Кингсли, Каллэн МакОлифф, Тамер Хассан, Джеральдин Джеймс, Стивен Макинтош, Элла Хант, Мило Паркер, Рой Хадд, Крэйг Гарнер
Описание: Роботы из далекой Галактики захватили Землю. Лондон разрушен, люди живут в постоянном страхе. Выжившим запрещено покидать свои дома. Каждому человеку вмонтирован чип, который в случае неповиновения может превратить его в горстку пепла. И лишь группа молодых друзей решается бросить вызов инопланетным захватчикам и уничтожить необъятный корабль, заслоняющий горизонт вот уже долгие годы.

Тип релиза: BDRip 1080p
Контейнер: MKV
Видео: MPEG-4 AVC, 10.1 Mбит/с, 1920x804, 23,976 fps
Аудио: Rus, AC3, 384 kb/s (6 ch), 48 kHz
Аудио 2: Eng, DTS, 1510 kb/s (6 ch), 48 kHz
Формат субтитров: softsub (SRT)

MediaInfo

Format : Matroska
Format version : Version 4 / Version 2
File size : 7.72 GiB
Duration : 1h 30mn
Overall bit rate : 12.3 Mbps
Movie name : Железная схватка. (Tonik)
Encoded date : UTC 2015-10-01 02:55:08
Writing application : mkvmerge v7.1.0 ('Good Love') 64bit built on Jul 27 2014 13:06:55
Writing library : libebml v1.3.0 + libmatroska v1.4.1
_STATISTICS_WRITING_APP : mkvmerge v7.1.0 ('Good Love') 64bit built on Jul 27 2014 13:06:55
_STATISTICS_WRITING_DATE_UTC : 2015-10-01 02:55:08
_STATISTICS_TAGS : BPS DURATION NUMBER_OF_FRAMES NUMBER_OF_BYTES
DURATION : 01:22:05.673000000
NUMBER_OF_FRAMES : 888
NUMBER_OF_BYTES : 46844
Video
ID : 1
Format : AVC
Format/Info : Advanced Video Codec
Format profile : High@L4.1
Format settings, CABAC : Yes
Format settings, ReFrames : 5 frames
Codec ID : V_MPEG4/ISO/AVC
Duration : 1h 30mn
Bit rate : 10.1 Mbps
Width : 1 920 pixels
Height : 804 pixels
Display aspect ratio : 2.40:1
Frame rate mode : Constant
Frame rate : 23.976 fps
Color space : YUV
Chroma subsampling : 4:2:0
Bit depth : 8 bits
Scan type : Progressive
Bits/(Pixel*Frame) : 0.274
Stream size : 6.38 GiB (83%)
Writing library : x264 core 142 r2491 24e4fed
Encoding settings : cabac=1 / ref=5 / deblock=1:-3:-3 / analyse=0x3:0x133 / me=tesa / subme=11 / psy=1 / psy_rd=1.05:0.00 / mixed_ref=1 / me_range=24 / chroma_me=1 / trellis=2 / 8x8dct=1 / cqm=0 / deadzone=21,11 / fast_pskip=0 / chroma_qp_offset=-2 / threads=12 / lookahead_threads=3 / sliced_threads=0 / nr=0 / decimate=1 / interlaced=0 / bluray_compat=0 / constrained_intra=0 / bframes=11 / b_pyramid=2 / b_adapt=2 / b_bias=0 / direct=3 / weightb=1 / open_gop=0 / weightp=2 / keyint=250 / keyint_min=23 / scenecut=40 / intra_refresh=0 / rc=crf / mbtree=0 / crf=17.0 / qcomp=0.70 / qpmin=0 / qpmax=69 / qpstep=4 / ip_ratio=1.40 / pb_ratio=1.30 / aq=1:0.70
Language : English
Default : Yes
Forced : No
Matrix coefficients : BT.709
_STATISTICS_WRITING_APP : mkvmerge v7.1.0 ('Good Love') 64bit built on Jul 27 2014 13:06:55
_STATISTICS_WRITING_DATE_UTC : 2015-10-01 02:55:08
_STATISTICS_TAGS : BPS DURATION NUMBER_OF_FRAMES NUMBER_OF_BYTES
DURATION : 01:30:04.232000000
NUMBER_OF_FRAMES : 129572
NUMBER_OF_BYTES : 7010723605
Audio #1
ID : 2
Format : AC-3
Format/Info : Audio Coding 3
Mode extension : CM (complete main)
Format settings, Endianness : Big
Codec ID : A_AC3
Duration : 1h 30mn
Bit rate mode : Constant
Bit rate : 384 Kbps
Channel(s) : 6 channels
Channel positions : Front: L C R, Side: L R, LFE
Sampling rate : 48.0 KHz
Bit depth : 16 bits
Compression mode : Lossy
Stream size : 247 MiB (3%)
Language : Russian
Default : Yes
Forced : No
Audio #2
ID : 3
Format : DTS
Format/Info : Digital Theater Systems
Mode : 16
Format settings, Endianness : Big
Codec ID : A_DTS
Duration : 1h 30mn
Bit rate mode : Constant
Bit rate : 1 509 Kbps
Channel(s) : 6 channels
Channel positions : Front: L C R, Side: L R, LFE
Sampling rate : 48.0 KHz
Bit depth : 24 bits
Compression mode : Lossy
Stream size : 972 MiB (12%)
Language : English
Default : No
Forced : No
Text #1
ID : 4
Format : UTF-8
Codec ID : S_TEXT/UTF8
Codec ID/Info : UTF-8 Plain Text
Language : Russian
Default : No
Forced : No
Text #2
ID : 5
Format : UTF-8
Codec ID : S_TEXT/UTF8
Codec ID/Info : UTF-8 Plain Text
Title : SDH
Language : English
Default : No
Forced : No
Menu
00:00:00.000 : en:00:00:00.000
00:05:12.479 : en:00:05:12.479
00:11:58.843 : en:00:11:58.843
00:15:56.873 : en:00:15:56.873
00:20:46.495 : en:00:20:46.495
00:27:00.285 : en:00:27:00.285
00:33:12.949 : en:00:33:12.949
00:37:59.986 : en:00:37:59.986
00:43:50.294 : en:00:43:50.294
00:49:13.242 : en:00:49:13.242
00:54:32.519 : en:00:54:32.519
01:00:07.938 : en:01:00:07.938
01:05:18.915 : en:01:05:18.915
01:10:23.136 : en:01:10:23.136
01:15:15.553 : en:01:15:15.553
01:22:29.695 : en:01:22:29.695

Скриншоты


_________________
Показать сообщения:    

Текущее время: Сегодня 16:38

Часовой пояс: GMT



Вы не можете начинать темы
Вы не можете отвечать на сообщения
Вы не можете редактировать свои сообщения
Вы не можете удалять свои сообщения
Вы не можете голосовать в опросах
Вы не можете прикреплять файлы к сообщениям
Вы не можете скачивать файлы