Важное объявление!
У Нас Все раздачи мультитрекерные, при нуле пиров в релизах, можете смело вставать на закачку!
 
Автор Сообщение

HUNTER

Стаж:
4 года 4 месяца
Сообщений:
56808

Репутация: 101

[+] [-]
Вне форума [Профиль] [ЛС]

Железная сотня / Залiзна сотня / The Company of Heroes
Страна: Украина, Австралия
Студия: Студія Олесь, Borec Homes Pty Ltd Australia
Жанр: драма, военный, исторический
Год выпуска: 2004
Продолжительность: 01:34:53
Перевод: Профессиональный (двухголосый закадровый)
Cубтитры: английские
Оригинальная аудиодорожка: украинский
Режиссер: Олесь Янчук
В ролях: Николай Боклан, Олег Примагенов, Иван Гаврилюк, Владимир Горянский, Дмитрий Терещук, Тарас Жирко, Игорь Писный, Ярослав Мука, Екатерина Кистень, Олеся Жураковская, Ирина Бардакова
Описание: обытия фильма происходят в 1944-1947 годах на территории Западной Украины и Восточной Польши. Герои фильма – снятого по реальным событиям –_молодые украинцы, которые сознательно пришли в ряды Украинской Повстанческой Армии. Сотня бойцов Украинской Повстанческой Армии во главе с Михаилом Дудой - Громенко бесстрашно сражалась сначала с большевиками, затем с фашистами. Понятно, что силы были неравны, но мощь духа и вера в конечную победу двигала несокрушимой " Железной сотней ". В жестоких реалиях войны, где жизнь и смерть всегда рядом, они прошли свой путь до конца и остались непокоренными и юными...
Бонусы: фильм про фильм "Железная сотня: кино, как оно есть...", слово про Юрия Борця (репортаж из Сиднея), смотрите на DVD фильмы Олеся Янчука.
Меню: Aнимированное, озвученное.
Сэмпл: http://multi-up.com/984923
Тип релиза: DVD9
Контейнер: DVD-Video
Видео: PAL 4:3 (720x576) VBR, 4683 кб/с
Аудио: русский, AC3 5.1, 448 Kbps.
Аудио 2: украинский, AC3 2.0, 384 Kbps.
DVDInfo
Title: Zheleznaya sotnya (DVD-9)
Size: 5.67 Gb ( 5 940 432,00 KBytes ) - DVD-9
Enabled regions: 1, 2, 3, 4, 5, 6, 7, 8
VTS_01 :
Play Length: 01:34:53
Video: PAL 4:3 (720x576) VBR
Audio:
Ukrainian (Dolby AC3, 2 ch)
Russian (Dolby AC3, 6 ch)
Subtitles:
English
VTS_02 :
Play Length: 00:07:00
Video: PAL 4:3 (720x576) VBR
Audio:
Ukrainian (Dolby AC3, 2 ch)
Russian (Dolby AC3, 2 ch)
Subtitles:
English
VTS_03 :
Play Length: 00:05:47
Video: PAL 4:3 (720x576) VBR
Audio:
Ukrainian (Dolby AC3, 2 ch)
Russian (Dolby AC3, 2 ch)
Subtitles:
English
VTS_04 :
Play Length: 00:19:14
Video: PAL 4:3 (720x576) VBR
Audio:
Ukrainian (Dolby AC3, 2 ch)
Russian (Dolby AC3, 2 ch)
Subtitles:
English
MediaInfo
Complete name : D:\_____________\Zheleznaya sotnya (DVD-9)\VIDEO_TS\VTS_01_1.VOB
Format : MPEG-PS
File size : 1 024 MiB
Duration : 25mn 35s
Overall bit rate mode : Variable
Overall bit rate : 5 594 Kbps
Video
ID : 224 (0xE0)
Format : MPEG Video
Format version : Version 2
Format profile : Main@Main
Format settings, BVOP : Yes
Format settings, Matrix : Custom
Format settings, GOP : M=3, N=15
Duration : 25mn 35s
Bit rate mode : Variable
Bit rate : 4 651 Kbps
Maximum bit rate : 8 000 Kbps
Width : 720 pixels
Height : 576 pixels
Display aspect ratio : 4:3
Frame rate : 25.000 fps
Standard : PAL
Color space : YUV
Chroma subsampling : 4:2:0
Bit depth : 8 bits
Scan type : Interlaced
Scan order : Top Field First
Compression mode : Lossy
Bits/(Pixel*Frame) : 0.449
Time code of first frame : 00:00:00:00
Time code source : Group of pictures header
Stream size : 851 MiB (83%)
Audio #1
ID : 189 (0xBD)-128 (0x80)
Format : AC-3
Format/Info : Audio Coding 3
Mode extension : CM (complete main)
Format settings, Endianness : Big
Muxing mode : DVD-Video
Duration : 25mn 35s
Bit rate mode : Constant
Bit rate : 384 Kbps
Channel(s) : 2 channels
Channel positions : Front: L R
Sampling rate : 48.0 KHz
Bit depth : 16 bits
Compression mode : Lossy
Stream size : 70.3 MiB (7%)
Audio #2
ID : 189 (0xBD)-129 (0x81)
Format : AC-3
Format/Info : Audio Coding 3
Mode extension : CM (complete main)
Format settings, Endianness : Big
Muxing mode : DVD-Video
Duration : 25mn 35s
Bit rate mode : Constant
Bit rate : 448 Kbps
Channel(s) : 6 channels
Channel positions : Front: L C R, Side: L R, LFE
Sampling rate : 48.0 KHz
Bit depth : 16 bits
Compression mode : Lossy
Stream size : 82.0 MiB (8%)
Text
ID : 189 (0xBD)-32 (0x20)
Format : RLE
Format/Info : Run-length encoding
Muxing mode : DVD-Video
Duration : 25mn 16s
Delay relative to video : 14s 360ms
Скриншоты менюСкриншотыСкриншоты доп. материаловОбложки

_________________
Показать сообщения:    

Текущее время: Сегодня 11:08

Часовой пояс: GMT



Вы не можете начинать темы
Вы не можете отвечать на сообщения
Вы не можете редактировать свои сообщения
Вы не можете удалять свои сообщения
Вы не можете голосовать в опросах
Вы не можете прикреплять файлы к сообщениям
Вы не можете скачивать файлы