Важное объявление!
У Нас Все раздачи мультитрекерные, при нуле пиров в релизах, можете смело вставать на закачку!
 
Автор Сообщение

HUNTER

Стаж:
4 года 4 месяца
Сообщений:
56719

Репутация: 101

[+] [-]
Вне форума [Профиль] [ЛС]

Жара / Гнев / Схватка / Heat
-Страна: США
Жанр: боевик, триллер, драма, криминал
Год выпуска: 1986
Продолжительность: 01:42:54-Перевод 1: Профессиональный (двухголосый) НТВ+
Перевод 2: Авторский (одноголосый, закадровый) Михалев
Cубтитры: английские
Оригинальная аудиодорожка: английский-Режиссер: Дик Ричардс / Dick Richards-В ролях: Берт Рейнолдс, Карен Янг, Питер МакНикол, Ховард Хессеман, Нилл Бэрри-Описание:
Холли, молодая проститутка из Лас-Вегаса, оказывается жертвой садистских действий со стороны Дэнни Де Марко, сынка крупного мафиози. Она обращается за помощью к своему соседу Нику Эскаланте по прозвищу Мексиканец, который специализируется в качестве частного агента по спасению из затруднительных положений, но он не очень-то хочет вмешиваться в хорошо известные ему дела преступных группировок. Однако из дружеских побуждений Ник соглашается на опасное отмщение. Одновременно он уступает настойчивым просьбам юного Сайраса Кинника, отпрыска миллионера, желающего научиться давать отпор в драке. Эскаланте, которому надоела жалкая жизнь одинокого авантюриста, решает в гневе порвать со всеми проблемами сразу, вдобавок выиграть много денег в рулетку и уехать прочь из Лас-Вегаса.-Сэмпл: Скачать-Тип релиза: WEB-DL 720p
Контейнер: MKV-Видео: 1280x716 (16:9); 4 034 Kbps; 23.976 fps; 0.183 bpp
Аудио 1: Russian; AC3; 48.0 KHz; 2ch; 192 Kbps
Аудио 2: Russian; AC3; 48.0 KHz; 2ch; 192 Kbps
Аудио 3: English; AAC; 48.0 KHz; 2ch; 160 Kbps

MediaInfo

Format : Matroska
Format version : Version 4 / Version 2
File size : 3.26 GiB
Duration : 1h 42mn
Overall bit rate : 4 530 Kbps
Movie name : Heat.1987.720p.WEB-DL.AAC2.0.H264-FGT
Encoded date : UTC 2015-09-16 09:02:49
Writing application : mkvmerge v8.1.0 ('Psychedelic Postcard') 64bit
Writing library : libebml v1.3.1 + libmatroska v1.4.2
Attachements : poster.jpg
DURATION : 01:42:54.400000000
NUMBER_OF_FRAMES : 192950
NUMBER_OF_BYTES : 148185600
_STATISTICS_WRITING_APP : mkvmerge v8.1.0 ('Psychedelic Postcard') 64bit
_STATISTICS_WRITING_DATE_UTC : 2015-09-16 09:02:49
_STATISTICS_TAGS : BPS DURATION NUMBER_OF_FRAMES NUMBER_OF_BYTES
Video
ID : 1
Format : AVC
Format/Info : Advanced Video Codec
Format profile : High@L3.1
Format settings, CABAC : No
Format settings, ReFrames : 2 frames
Codec ID : V_MPEG4/ISO/AVC
Duration : 1h 42mn
Width : 1 280 pixels
Height : 716 pixels
Display aspect ratio : 16:9
Frame rate mode : Constant
Frame rate : 23.976 fps
Color space : YUV
Chroma subsampling : 4:2:0
Bit depth : 8 bits
Scan type : Progressive
Title : Heat.1987.720p.WEB-DL.AAC2.0.H264-FGT
Language : English
Default : Yes
Forced : No
Color primaries : BT.709
Transfer characteristics : BT.709
Matrix coefficients : BT.709
Audio #1
ID : 2
Format : AC-3
Format/Info : Audio Coding 3
Mode extension : CM (complete main)
Format settings, Endianness : Big
Codec ID : A_AC3
Duration : 1h 42mn
Bit rate mode : Constant
Bit rate : 192 Kbps
Channel(s) : 2 channels
Channel positions : Front: L R
Sampling rate : 48.0 KHz
Bit depth : 16 bits
Compression mode : Lossy
Stream size : 141 MiB (4%)
Title : DVO НТВ+
Language : Russian
Default : Yes
Forced : No
Audio #2
ID : 3
Format : AC-3
Format/Info : Audio Coding 3
Mode extension : CM (complete main)
Format settings, Endianness : Big
Codec ID : A_AC3
Duration : 1h 42mn
Bit rate mode : Constant
Bit rate : 192 Kbps
Channel(s) : 2 channels
Channel positions : Front: L R
Sampling rate : 48.0 KHz
Bit depth : 16 bits
Compression mode : Lossy
Stream size : 141 MiB (4%)
Title : AVO Михалев
Language : Russian
Default : No
Forced : No
Audio #3
ID : 4
Format : AAC
Format/Info : Advanced Audio Codec
Format profile : LC
Codec ID : A_AAC
Duration : 1h 42mn
Channel(s) : 2 channels
Channel positions : Front: L R
Sampling rate : 48.0 KHz
Compression mode : Lossy
Title : Heat.1987.720p.WEB-DL.AAC2.0.H264-FGT
Language : English
Default : No
Forced : No
Text
ID : 5
Format : UTF-8
Codec ID : S_TEXT/UTF8
Codec ID/Info : UTF-8 Plain Text
Language : English
Default : No
Forced : No
Menu
00:00:00.000 : en:Chapter 1
00:05:17.000 : en:Chapter 2
00:12:09.000 : en:Chapter 3
00:21:18.000 : en:Chapter 4
00:28:44.000 : en:Chapter 5
00:39:52.000 : en:Chapter 6
00:46:42.000 : en:Chapter 7
00:53:49.000 : en:Chapter 8
01:00:55.000 : en:Chapter 9
01:09:43.000 : en:Chapter 10
01:15:34.000 : en:Chapter 11
01:25:23.000 : en:Chapter 12
01:32:30.000 : en:Chapter 13
01:40:16.000 : en:Chapter 14

Скриншоты


_________________
Показать сообщения:    

Текущее время: Сегодня 19:27

Часовой пояс: GMT



Вы не можете начинать темы
Вы не можете отвечать на сообщения
Вы не можете редактировать свои сообщения
Вы не можете удалять свои сообщения
Вы не можете голосовать в опросах
Вы не можете прикреплять файлы к сообщениям
Вы не можете скачивать файлы