Важное объявление!
У Нас Все раздачи мультитрекерные, при нуле пиров в релизах, можете смело вставать на закачку!
 
Автор Сообщение

HUNTER

Стаж:
4 года 4 месяца
Сообщений:
56798

Репутация: 101

[+] [-]
Вне форума [Профиль] [ЛС]

Жапплу / Jappeloup
Страна: Франция, Канада
Жанр: драма, байопик
Год выпуска: 2013
Продолжительность: 02:09:59
Перевод: Субтитры
Cубтитры: немецкие (полные, форсированные), русские (Mig_88), французский (хардсаб на английскую речь)
Оригинальная аудиодорожка: французский (мультиязыковая: французский, английский)
Режиссер: Кристиан Дюге / Christian Duguay
В ролях: Гийом Кане, Даниель Отой, Марина Хэндс, Лу де Лааж, Чеки Карио, Жак Ижлен, Мари Бюнель, Жоэль Дюпюш, Фридерик Эпо, Арно Анриет
Описание:
В начале 80-х, оставив многообещающую карьеру адвоката, Пьер Дюран посвятил себя конному спорту. Никто не верит, что ему удастся добиться значительных результатов: его лошадь, Жапплу, слишком мала ростом и обладает непредсказуемым темпераментом…
- || -Тип релиза: BDRip 720p (рип от Kuningas@CRiSC)

Контейнер: MKV
Видео: AVC (x264), 1280x544 (2,35:1) at 24,000 fps, 6000 Кbps, 0.359 bpp
Аудио 1: AC3; 640 Kbps; CBR; 6 ch; 48 khz | Французский |
Формат субтитров: softsub (SRT)

Скриншоты || x264 Info || MediaInfo || Notes

MediaInfo
Код:
Общее
Уникальный идентификатор                 : 228058979193736516272399500962531298393 (0xAB928FCC542D2A4399DFAC295BDACC59)
Полное имя                               : Жапплу.2013.RUSSUB.720p.BluRay.x264-CRiSC.mkv
Формат                                   : Matroska
Версия формата                           : Version 4 / Version 2
Размер файла                             : 6,03 Гбайт
Продолжительность                        : 2 ч. 9 м.
Общий поток                              : 6639 Кбит/сек
Название фильма                          : Jappeloup [720p] [2013] RUS SUB
Дата кодирования                         : UTC 2014-07-25 01:28:08
Программа кодирования                    : mkvmerge v7.0.0 ('Where We Going') 32bit built on Jun  9 2014 15:08:34
Библиотека кодирования                   : libebml v1.3.0 + libmatroska v1.4.1
Видео
Идентификатор                            : 1
Формат                                   : AVC
Формат/Информация                        : Advanced Video Codec
Профиль формата                          : High@L4.1
Параметр CABAC формата                   : Да
Параметр ReFrames формата                : 12 кадров
Идентификатор кодека                     : V_MPEG4/ISO/AVC
Продолжительность                        : 2 ч. 9 м.
Битрейт                                  : 6000 Кбит/сек
Ширина                                   : 1280 пикселей
Высота                                   : 544 пикселя
Соотношение сторон                       : 2,35:1
Режим частоты кадров                     : Постоянный
Частота кадров                           : 24,000 кадра/сек
Цветовое пространство                    : YUV
Субдискретизация насыщенности            : 4:2:0
Битовая глубина                          : 8 бит
Тип развёртки                            : Прогрессивная
Бит/(Пиксели*Кадры)                      : 0.359
Размер потока                            : 5,33 Гбайт (88%)
Заголовок                                : profile.php?mode=viewprofile&u=22488948
Библиотека кодирования                   : x264 core 135 r2345kMod f0c1c53
Настройки программы                      : cabac=1 / ref=12 / deblock=1:-3:-3 / analyse=0x3:0x133 / me=umh / subme=11 / psy=1 / fade_compensate=0.00 / psy_rd=1.10:0.00 / mixed_ref=1 / me_range=64 / chroma_me=1 / trellis=2 / 8x8dct=1 / cqm=0 / deadzone=21,11 / fast_pskip=0 / chroma_qp_offset=-2 / threads=12 / lookahead_threads=2 / sliced_threads=0 / nr=0 / decimate=0 / interlaced=0 / bluray_compat=0 / constrained_intra=0 / bframes=7 / b_pyramid=2 / b_adapt=2 / b_bias=0 / direct=3 / weightb=1 / open_gop=0 / weightp=2 / keyint=250 / keyint_min=24 / scenecut=40 / intra_refresh=0 / rc_lookahead=40 / rc=2pass / mbtree=0 / bitrate=6000 / ratetol=1.0 / qcomp=0.65 / qpmin=0 / qpmax=69 / qpstep=4 / cplxblur=20.0 / qblur=0.5 / vbv_maxrate=50000 / vbv_bufsize=62500 / nal_hrd=none / ip_ratio=1.35 / pb_ratio=1.25 / aq=1:0.70
Язык                                     : French
Default                                  : Да
Forced                                   : Нет
Основные цвета                           : BT.709
Характеристики трансфера                 : BT.709
Коэффициенты матрицы                     : BT.709
Аудио
Идентификатор                            : 2
Формат                                   : AC-3
Формат/Информация                        : Audio Coding 3
Расширение режима                        : CM (complete main)
Параметр Endianness формата              : Big
Идентификатор кодека                     : A_AC3
Продолжительность                        : 2 ч. 9 м.
Вид битрейта                             : Постоянный
Битрейт                                  : 640 Кбит/сек
Каналы                                   : 6 каналов
Расположение каналов                     : Front: L C R, Side: L R, LFE
Частота                                  : 48,0 КГц
Битовая глубина                          : 16 бит
Метод сжатия                             : С потерями
Размер потока                            : 595 Мбайт (10%)
Язык                                     : French
Default                                  : Да
Forced                                   : Нет
Текст #1
Идентификатор                            : 3
Формат                                   : UTF-8
Идентификатор кодека                     : S_TEXT/UTF8
Идентификатор кодека/Информация          : UTF-8 Plain Text
Заголовок                                : [Mig_88]
Язык                                     : Russian
Default                                  : Да
Forced                                   : Нет
Текст #2
Идентификатор                            : 4
Формат                                   : UTF-8
Идентификатор кодека                     : S_TEXT/UTF8
Идентификатор кодека/Информация          : UTF-8 Plain Text
Заголовок                                : full
Язык                                     : German
Default                                  : Нет
Forced                                   : Нет
Текст #3
Идентификатор                            : 5
Формат                                   : UTF-8
Идентификатор кодека                     : S_TEXT/UTF8
Идентификатор кодека/Информация          : UTF-8 Plain Text
Заголовок                                : forced
Язык                                     : German
Default                                  : Нет
Forced                                   : Нет
Меню
00:00:00.000                             : en:00:00:00.000
00:06:20.000                             : en:00:06:20.000
00:11:59.000                             : en:00:11:59.000
00:15:36.792                             : en:00:15:36.792
00:22:31.875                             : en:00:22:31.875
00:29:28.333                             : en:00:29:28.333
00:37:06.750                             : en:00:37:06.750
00:43:04.625                             : en:00:43:04.625
00:50:27.875                             : en:00:50:27.875
00:56:08.208                             : en:00:56:08.208
01:04:04.917                             : en:01:04:04.917
01:10:08.083                             : en:01:10:08.083
01:18:09.833                             : en:01:18:09.833
01:24:04.125                             : en:01:24:04.125
01:29:11.125                             : en:01:29:11.125
01:36:18.292                             : en:01:36:18.292
01:43:45.417                             : en:01:43:45.417
01:49:03.875                             : en:01:49:03.875
01:56:54.833                             : en:01:56:54.833
02:05:00.708                             : en:02:05:00.708

x264 Info

x264 [info]: frame I:1307 Avg QP:15.14 size:121830
x264 [info]: frame P:53324 Avg QP:17.45 size: 50506
x264 [info]: frame B:132543 Avg QP:18.98 size: 22590
x264 [info]: consecutive B-frames: 5.9% 9.5% 12.9% 22.4% 16.5% 27.8% 3.7% 1.3%

_________________
Показать сообщения:    

Текущее время: Сегодня 01:09

Часовой пояс: GMT



Вы не можете начинать темы
Вы не можете отвечать на сообщения
Вы не можете редактировать свои сообщения
Вы не можете удалять свои сообщения
Вы не можете голосовать в опросах
Вы не можете прикреплять файлы к сообщениям
Вы не можете скачивать файлы