Важное объявление!
У Нас Все раздачи мультитрекерные, при нуле пиров в релизах, можете смело вставать на закачку!
 
Автор Сообщение

HUNTER

Стаж:
4 года 4 месяца
Сообщений:
56733

Репутация: 101

[+] [-]
Вне форума [Профиль] [ЛС]

Жапплу / Jappeloup
Страна: Франция, Канада
Жанр: драма, байопик
Год выпуска: 2013
Продолжительность: 02:09:59
Перевод: Субтитры
Cубтитры: немецкие (полные, форсированные), русские (Mig_88), французский (хардсаб на английскую речь)
Оригинальная аудиодорожка: французский (мультиязыковая: французский, английский)
Режиссер: Кристиан Дюге / Christian Duguay
В ролях: Гийом Кане, Даниель Отой, Марина Хэндс, Лу де Лааж, Чеки Карио, Жак Ижлен, Мари Бюнель, Жоэль Дюпюш, Фридерик Эпо, Арно Анриет
Описание:
В начале 80-х, оставив многообещающую карьеру адвоката, Пьер Дюран посвятил себя конному спорту. Никто не верит, что ему удастся добиться значительных результатов: его лошадь, Жапплу, слишком мала ростом и обладает непредсказуемым темпераментом…
- || -Тип релиза: BDRip 1080p (рип от HDWinG)

Контейнер: MKV
Видео: AVC (x264), 1920x816 (2,35:1) at 24,000 fps, 13000 Кbps, 0.346 bpp
Аудио 1: DTS; 1536 Kbps; CBR; 6 ch; 48 khz | Французский |
Формат субтитров: softsub (SRT)

Скриншоты || x264 Info || MediaInfo || Notes

MediaInfo
Код:
Общее
Уникальный идентификатор                 : 183323236125559814169005858120332339825 (0x89EAC55FF807E621ACE3F6522639EA71)
Полное имя                               : Жапплу.2013.RUSSUB.1080p.BluRay.x264-HDWinG.mkv
Формат                                   : Matroska
Версия формата                           : Version 4 / Version 2
Размер файла                             : 13,2 Гбайт
Продолжительность                        : 2 ч. 9 м.
Общий поток                              : 14,5 Мбит/сек
Название фильма                          : Jappeloup [1080p] [2013] RUS SUB
Дата кодирования                         : UTC 2014-07-25 01:42:50
Программа кодирования                    : mkvmerge v7.0.0 ('Where We Going') 32bit built on Jun  9 2014 15:08:34
Библиотека кодирования                   : libebml v1.3.0 + libmatroska v1.4.1
Видео
Идентификатор                            : 1
Формат                                   : AVC
Формат/Информация                        : Advanced Video Codec
Профиль формата                          : High@L4.1
Параметр CABAC формата                   : Да
Параметр ReFrames формата                : 5 кадров
Идентификатор кодека                     : V_MPEG4/ISO/AVC
Продолжительность                        : 2 ч. 9 м.
Битрейт                                  : 13,0 Мбит/сек
Ширина                                   : 1920 пикселей
Высота                                   : 816 пикселей
Соотношение сторон                       : 2,35:1
Режим частоты кадров                     : Постоянный
Частота кадров                           : 24,000 кадра/сек
Цветовое пространство                    : YUV
Субдискретизация насыщенности            : 4:2:0
Битовая глубина                          : 8 бит
Тип развёртки                            : Прогрессивная
Бит/(Пиксели*Кадры)                      : 0.346
Размер потока                            : 11,5 Гбайт (88%)
Заголовок                                : profile.php?mode=viewprofile&u=22488948
Библиотека кодирования                   : x264 core 132 r2323+704+51 d571b1c tMod [8-bit@4:2:0 X86_64]
Настройки программы                      : cabac=1 / ref=5 / deblock=1:-3:-3 / analyse=0x3:0x113 / me=umh / subme=11 / psy=1 / fade_compensate=0.00 / psy_rd=1.01:0.00 / mixed_ref=1 / me_range=32 / chroma_me=1 / trellis=2 / 8x8dct=1 / cqm=0 / deadzone=21,11 / fast_pskip=0 / chroma_qp_offset=-2 / threads=36 / lookahead_threads=6 / sliced_threads=0 / nr=0 / decimate=0 / interlaced=0 / bluray_compat=0 / constrained_intra=0 / fgo=0 / bframes=8 / b_pyramid=2 / b_adapt=2 / b_bias=0 / direct=3 / weightb=1 / open_gop=0 / weightp=2 / keyint=240 / keyint_min=24 / scenecut=40 / intra_refresh=0 / rc_lookahead=240 / rc=2pass / mbtree=1 / bitrate=13000 / ratetol=1.0 / qcomp=0.70 / qpmin=0 / qpmax=69 / qpstep=4 / cplxblur=20.0 / qblur=0.5 / ip_ratio=1.20 / aq=4:0.85 / aq-sensitivity=10.00 / aq-factor=1.00:1.00:1.00 / aq2=0 / aq3=0
Язык                                     : French
Default                                  : Да
Forced                                   : Нет
Аудио
Идентификатор                            : 2
Формат                                   : DTS
Формат/Информация                        : Digital Theater Systems
Режим                                    : 16
Параметр Endianness формата              : Big
Идентификатор кодека                     : A_DTS
Продолжительность                        : 2 ч. 9 м.
Вид битрейта                             : Постоянный
Битрейт                                  : 1509 Кбит/сек
Каналы                                   : 6 каналов
Расположение каналов                     : Front: L C R, Side: L R, LFE
Частота                                  : 48,0 КГц
Битовая глубина                          : 16 бит
Метод сжатия                             : С потерями
Размер потока                            : 1,37 Гбайт (10%)
Язык                                     : French
Default                                  : Да
Forced                                   : Нет
Текст #1
Идентификатор                            : 3
Формат                                   : UTF-8
Идентификатор кодека                     : S_TEXT/UTF8
Идентификатор кодека/Информация          : UTF-8 Plain Text
Заголовок                                : [Mig_88]
Язык                                     : Russian
Default                                  : Да
Forced                                   : Нет
Текст #2
Идентификатор                            : 4
Формат                                   : UTF-8
Идентификатор кодека                     : S_TEXT/UTF8
Идентификатор кодека/Информация          : UTF-8 Plain Text
Заголовок                                : full
Язык                                     : German
Default                                  : Нет
Forced                                   : Нет
Текст #3
Идентификатор                            : 5
Формат                                   : UTF-8
Идентификатор кодека                     : S_TEXT/UTF8
Идентификатор кодека/Информация          : UTF-8 Plain Text
Заголовок                                : forced
Язык                                     : German
Default                                  : Нет
Forced                                   : Нет
Меню
00:00:00.000                             : en:00:00:00.000
00:06:20.000                             : en:00:06:20.000
00:11:59.000                             : en:00:11:59.000
00:15:36.792                             : en:00:15:36.792
00:22:31.875                             : en:00:22:31.875
00:29:28.333                             : en:00:29:28.333
00:37:06.750                             : en:00:37:06.750
00:43:04.625                             : en:00:43:04.625
00:50:27.875                             : en:00:50:27.875
00:56:08.208                             : en:00:56:08.208
01:04:04.917                             : en:01:04:04.917
01:10:08.083                             : en:01:10:08.083
01:18:09.833                             : en:01:18:09.833
01:24:04.125                             : en:01:24:04.125
01:29:11.125                             : en:01:29:11.125
01:36:18.292                             : en:01:36:18.292
01:43:45.417                             : en:01:43:45.417
01:49:03.875                             : en:01:49:03.875
01:56:54.833                             : en:01:56:54.833
02:05:00.708                             : en:02:05:00.708

_________________
Показать сообщения:    

Текущее время: Сегодня 20:30

Часовой пояс: GMT



Вы не можете начинать темы
Вы не можете отвечать на сообщения
Вы не можете редактировать свои сообщения
Вы не можете удалять свои сообщения
Вы не можете голосовать в опросах
Вы не можете прикреплять файлы к сообщениям
Вы не можете скачивать файлы