Важное объявление!
У Нас Все раздачи мультитрекерные, при нуле пиров в релизах, можете смело вставать на закачку!
 
Автор Сообщение

HUNTER

Стаж:
4 года 4 месяца
Сообщений:
56734

Репутация: 101

[+] [-]
Вне форума [Профиль] [ЛС]

Жажда жизни / Lust for Life-
Год выпуска: 1956
Страна: США
Жанр: драма, биография
Продолжительность: 02:02:19
Перевод: Профессиональный (многоголосый закадровый)
Оригинальная аудиодорожка: Английская
Cубтитры: Английские-Режиссер: Винсент Миннелли, Джордж Кьюкор / Vincente Minnelli, George Cukor
В ролях: Кирк Дуглас, Энтони Куинн, Джеймс Дональд, Памела Браун, Эверет Слоун, Ниалл МакГиннис, Ноэл Пёрселл, Генри Дэниелл, Мэдж Кеннеди, Джилл Беннетт-Описание:
Трагическая история жизни художника Ван Гога, сколь блестящего, столь безумного. После смерти отца он перебрался в Париж и примкнул к импрессионистам. Однажды он познакомился с Полем Гогеном. Время проходило в работе и творческих спорах, переходящих в ссоры. Ван Гог все чаще переживал приступы безумия: во время одного из них он отрезал себе ухо… За исполнение главной роли был номинирован на Оскара. Многие считают, что Ван Гог в исполнении Кёрка Дугласа — это его лучшая актёрская работа. Впрочем, яростных противников у фильма тоже предостаточно.- | [IMDb | Сэмпл-Качество: BDRip 720p (SiQ)
Контейнер: MKV
Видео: x264, 1280x502 (2.55:1), 23.976 fps, 5801 kbps
Аудио 1: Русский AC3 2.0, 48 kHz, 192 kbps
Аудио 2: Английский AC3 5.1, 48 kHz, 640 kbps
Аудио 3: Английский AAC 2.0, 48 kHz, 96 kbps — Комментарии
Формат субтитров: softsub (SRT)

Скриншоты

Encode vs Source vs Scene(Resized) vs Web-DL



-

MI

nfo
GENERAL iNFORMATiON
RELEASE DATE........: 2015.03.02
RUNTiME.............: 02:02:18
SiZE................: 5.58G
VIDEO CODEC.........: x264, CRF, L4.1
ViDEO BiTRATE.......: 5801 Kbps
FRAMERATE...........: 23.976
RESOLUTiON..........: 1280x502
AUDiO 1.............: English AC3 5.1 @ 640 Kbps
AUDiO 2.............: English AAC 2.0 @ 90 Kbps (Commentary by Dr. Drew Casper)
SUBTiTLES...........: English(srt), English SDH(srt)
CHAPTERS............: Yes
SOURCE..............: 1080p Blu-ray AVC DTS-HD MA 5.1-PCH(thx Batistuta)
iMDB.RATiNG.........: 7.4/10 from 6,406 users
iMDB.LiNK...........: http://www.imdb.com/title/tt0049456/
ENCODER ............: siqianLee
*Greeting to fransky, tashibach, VivaChina, metesa and all my friends!
x264 [info]: frame I:880 Avg QP:15.53 size:107681
x264 [info]: frame P:31383 Avg QP:17.25 size: 48184
x264 [info]: frame B:143687 Avg QP:18.40 size: 25836
x264 [info]: consecutive B-frames: 0.7% 0.6% 1.8% 12.0% 17.2% 42.5% 10.7% 9.6% 3.2% 1.7%
x264 [info]: kb/s:5798.63
x264 [info]: encoded 175950 frames, 5.550 fps, 5798.63 kb/s, 5072.8 MB
General
Unique ID : 233796959889683279021143427193211135854 (0xAFE3A816A9F7DB3989151854050F276E)
Complete name : Lust.for.Life.1956.720p.BluRay.DD5.1.264-SiQ.mkv
Format : Matroska
Format version : Version 2
File size : 5.74 GiB
Duration : 2h 2mn
Overall bit rate : 6 723 Kbps
Movie name : Lust for Life / Жажда жизни (1956) – RuTracker
Encoded date : UTC 2015-03-03 21:08:10
Writing application : mkvmerge v7.5.0 ('Glass Culture') 64bit built on Jan 4 2015 16:48:44
Writing library : libebml v1.3.1 + libmatroska v1.4.2
Attachements : cover.jpg
Video
ID : 1
Format : AVC
Format/Info : Advanced Video Codec
Format profile : High@L4.1
Format settings, CABAC : Yes
Format settings, ReFrames : 13 frames
Codec ID : V_MPEG4/ISO/AVC
Duration : 2h 2mn
Width : 1 280 pixels
Height : 502 pixels
Display aspect ratio : 2.550
Frame rate mode : Constant
Frame rate : 23.976 fps
Color space : YUV
Chroma subsampling : 4:2:0
Bit depth : 8 bits
Scan type : Progressive
Title : Lust.for.Life.1956.720p.BluRay.DD5.1.264-SiQ
Writing library : x264 core 142 r2431+42 c69a006 tMod [8-bit@4:2:0 X86]
Encoding settings : cabac=1 / ref=13 / deblock=1:-3:-3 / analyse=0x3:0x133 / me=umh / subme=11 / psy=1 / fade_compensate=0.00 / psy_rd=1.00:0.00 / mixed_ref=1 / me_range=24 / chroma_me=1 / trellis=2 / 8x8dct=1 / cqm=0 / deadzone=21,11 / fast_pskip=0 / chroma_qp_offset=-2 / threads=12 / lookahead_threads=2 / sliced_threads=0 / nr=0 / decimate=1 / interlaced=0 / bluray_compat=0 / constrained_intra=0 / fgo=0 / bframes=9 / b_pyramid=2 / b_adapt=2 / b_bias=0 / direct=3 / weightb=1 / open_gop=0 / weightp=2 / keyint=250 / keyint_min=23 / scenecut=40 / intra_refresh=0 / rc_lookahead=60 / rc=crf / mbtree=0 / crf=16.5000 / qcomp=0.65 / qpmin=0:0:0 / qpmax=69:69:69 / qpstep=4 / vbv_maxrate=50000 / vbv_bufsize=62500 / crf_max=0.0 / nal_hrd=none / filler=0 / ip_ratio=1.30 / pb_ratio=1.15 / aq=4:0.75 / aq-sensitivity=10.00 / aq-factor=1.00:1.00:1.00 / aq2=0 / aq3=0
Language : English
Default : Yes
Forced : No
Audio #1
ID : 2
Format : AC-3
Format/Info : Audio Coding 3
Mode extension : CM (complete main)
Format settings, Endianness : Big
Codec ID : A_AC3
Duration : 2h 2mn
Bit rate mode : Constant
Bit rate : 192 Kbps
Channel(s) : 2 channels
Channel positions : Front: L R
Sampling rate : 48.0 KHz
Bit depth : 16 bits
Compression mode : Lossy
Stream size : 168 MiB (3%)
Title : MVO
Language : Russian
Default : Yes
Forced : No
Audio #2
ID : 3
Format : AC-3
Format/Info : Audio Coding 3
Mode extension : CM (complete main)
Format settings, Endianness : Big
Codec ID : A_AC3
Duration : 2h 2mn
Bit rate mode : Constant
Bit rate : 640 Kbps
Channel(s) : 6 channels
Channel positions : Front: L C R, Side: L R, LFE
Sampling rate : 48.0 KHz
Bit depth : 16 bits
Compression mode : Lossy
Stream size : 560 MiB (10%)
Title : Original
Language : English
Default : No
Forced : No
Audio #3
ID : 4
Format : AAC
Format/Info : Advanced Audio Codec
Format profile : LC
Codec ID : A_AAC
Duration : 2h 2mn
Channel(s) : 2 channels
Channel positions : Front: L R
Sampling rate : 48.0 KHz
Compression mode : Lossy
Title : Commentary by film historian Dr. Drew Casper
Language : English
Default : No
Forced : No
Text #1
ID : 5
Format : UTF-8
Codec ID : S_TEXT/UTF8
Codec ID/Info : UTF-8 Plain Text
Language : English
Default : No
Forced : No
Text #2
ID : 6
Format : UTF-8
Codec ID : S_TEXT/UTF8
Codec ID/Info : UTF-8 Plain Text
Title : SDH
Language : English
Default : No
Forced : No
Menu
00:00:00.000 : :Chapter 01
00:00:45.545 : :Chapter 02
00:10:05.855 : :Chapter 03
00:20:44.243 : :Chapter 04
00:30:30.328 : :Chapter 05
00:39:37.792 : :Chapter 06
00:50:18.515 : :Chapter 07
01:00:00.346 : :Chapter 08
01:09:39.383 : :Chapter 09
01:22:00.957 : :Chapter 10
01:31:48.419 : :Chapter 11
01:39:56.323 : :Chapter 12
01:50:54.731 : :Chapter 13
02:00:08.910 : :Chapter 14
02:02:18.331 : :Chapter 15

_________________
Показать сообщения:    

Текущее время: Сегодня 15:01

Часовой пояс: GMT



Вы не можете начинать темы
Вы не можете отвечать на сообщения
Вы не можете редактировать свои сообщения
Вы не можете удалять свои сообщения
Вы не можете голосовать в опросах
Вы не можете прикреплять файлы к сообщениям
Вы не можете скачивать файлы