Важное объявление!
У Нас Все раздачи мультитрекерные, при нуле пиров в релизах, можете смело вставать на закачку!
 
Автор Сообщение

HUNTER

Стаж:
4 года 4 месяца
Сообщений:
56755

Репутация: 101

[+] [-]
Вне форума [Профиль] [ЛС]

Единственный выстрел / A Single Shot
Страна: Великобритания, США, Канада
Студия: Unified Pictures, Media House Capital, ...
Жанр: триллер, драма, криминал
Год выпуска: 2013
Продолжительность: 01:55:46
Перевод:
  • Профессиональный (многоголосый закадровый) Пифагор
  • Одноголосый закадровый Max Nabokov
    Cубтитры: английские (SDH), украинские
    Оригинальная аудиодорожка: английский
    Режиссер: Дэвид М. Розенталь / David M. Rosenthal
    В ролях: Сэм Рокуэлл, Джеффри Райт, Келли Райлли, Джейсон Айзекс, Джо Андерсон, Офелия Ловибонд, Тед Левайн, Уильям Х. Мэйси, Эми Слоун, У. Эрл Браун
    Описание:
    История о том, как Джон Мун пошел охотиться на оленя и случайно застрелил молодую женщину, у которой затем он нашел письмо и большую сумму денег. И в итоге паническое сокрытие несчастного случая превратилось в бесконечный кошмар.
    - || -Тип релиза: BDRip 720p (рип от MThePuppet@NTb)

    Контейнер: MKV
    Видео: AVC (x264), 1280x534 (2,40:1) at 23,976 fps, 7010 Кbps, 0.428 bpp
    Аудио 1: AC3; 384 Kbps; CBR; 6 ch; 48 khz | MVO |
    Аудио 2: AC3; 640 Kbps; CBR; 6 ch; 48 khz | VO - Max Nabokov |
    Аудио 3: AC3; 640 Kbps; CBR; 6 ch; 48 khz | Английский |
    Формат субтитров: softsub (SRT)

    Скриншоты || x264 Info || MediaInfo || Notes

    Notes:
    Английские субтитры взяты с A.Single.Shot.2013.720p.WEB-DL.X264-WEBiOS - после распознавания субтитров с блюрей появлялся рассинхрон
    Аудио дорожка №1 и ukr субтитры взяты с релиза A.Single.Shot.2013.720p.WEB-DL.Rus.Eng.HDCLUB, thx: by Dreamcatcher
    Исходный WEB-DL куплен в рамках сервиса "Копилка"

    MediaInfo

    Код:
    Общее
    Уникальный идентификатор                 : 224658566142258944648251713041557905216 (0xA903AA7DA466A32AB1BC5EF490845F40)
    Полное имя                               : Единственный выстрел.2013.MVO.720p.BluRay.x264-NTb.mkv
    Формат                                   : Matroska
    Версия формата                           : Version 4 / Version 2
    Размер файла                             : 7,16 Гбайт
    Продолжительность                        : 1 ч. 55 м.
    Общий поток                              : 8850 Кбит/сек
    Название фильма                          : A Single Shot [720p] [2013] MVO, VO
    Дата кодирования                         : UTC 2014-09-09 04:10:33
    Программа кодирования                    : mkvmerge v7.1.0 ('Good Love') 32bit built on Jul 27 2014 12:59:18
    Библиотека кодирования                   : libebml v1.3.0 + libmatroska v1.4.1
    Видео
    Идентификатор                            : 1
    Формат                                   : AVC
    Формат/Информация                        : Advanced Video Codec
    Профиль формата                          : High@L4.1
    Параметр CABAC формата                   : Да
    Параметр ReFrames формата                : 12 кадров
    Идентификатор кодека                     : V_MPEG4/ISO/AVC
    Продолжительность                        : 1 ч. 55 м.
    Битрейт                                  : 7010 Кбит/сек
    Ширина                                   : 1280 пикселей
    Высота                                   : 534 пикселя
    Соотношение сторон                       : 2,40:1
    Режим частоты кадров                     : Постоянный
    Частота кадров                           : 23,976 кадра/сек
    Цветовое пространство                    : YUV
    Субдискретизация насыщенности            : 4:2:0
    Битовая глубина                          : 8 бит
    Тип развёртки                            : Прогрессивная
    Бит/(Пиксели*Кадры)                      : 0.428
    Размер потока                            : 5,67 Гбайт (79%)
    Заголовок                                : profile.php?mode=viewprofile&u=22488948
    Библиотека кодирования                   : x264 core 140 r2377 1ca7bb9
    Настройки программы                      : cabac=1 / ref=12 / deblock=1:-3:-3 / analyse=0x3:0x133 / me=umh / subme=10 / psy=1 / psy_rd=1.07:0.00 / mixed_ref=1 / me_range=48 / chroma_me=1 / trellis=2 / 8x8dct=1 / cqm=0 / deadzone=21,11 / fast_pskip=0 / chroma_qp_offset=-2 / threads=6 / lookahead_threads=1 / sliced_threads=0 / nr=0 / decimate=0 / interlaced=0 / bluray_compat=0 / constrained_intra=0 / bframes=9 / b_pyramid=2 / b_adapt=2 / b_bias=0 / direct=3 / weightb=1 / open_gop=0 / weightp=2 / keyint=250 / keyint_min=23 / scenecut=40 / intra_refresh=0 / rc_lookahead=100 / rc=crf / mbtree=0 / crf=16.0 / qcomp=0.82 / qpmin=0 / qpmax=69 / qpstep=4 / vbv_maxrate=50000 / vbv_bufsize=62500 / crf_max=0.0 / nal_hrd=none / filler=0 / ip_ratio=1.20 / pb_ratio=1.10 / aq=1:0.65
    Язык                                     : English
    Default                                  : Да
    Forced                                   : Нет
    Аудио #1
    Идентификатор                            : 2
    Формат                                   : AC-3
    Формат/Информация                        : Audio Coding 3
    Расширение режима                        : CM (complete main)
    Параметр Endianness формата              : Big
    Идентификатор кодека                     : A_AC3
    Продолжительность                        : 1 ч. 55 м.
    Вид битрейта                             : Постоянный
    Битрейт                                  : 384 Кбит/сек
    Каналы                                   : 6 каналов
    Расположение каналов                     : Front: L C R, Side: L R, LFE
    Частота                                  : 48,0 КГц
    Битовая глубина                          : 16 бит
    Метод сжатия                             : С потерями
    Размер потока                            : 318 Мбайт (4%)
    Заголовок                                : P, MVO [Пифагор]
    Язык                                     : Russian
    Default                                  : Да
    Forced                                   : Нет
    Аудио #2
    Идентификатор                            : 3
    Формат                                   : AC-3
    Формат/Информация                        : Audio Coding 3
    Расширение режима                        : CM (complete main)
    Параметр Endianness формата              : Big
    Идентификатор кодека                     : A_AC3
    Продолжительность                        : 1 ч. 55 м.
    Вид битрейта                             : Постоянный
    Битрейт                                  : 640 Кбит/сек
    Каналы                                   : 6 каналов
    Расположение каналов                     : Front: L C R, Side: L R, LFE
    Частота                                  : 48,0 КГц
    Битовая глубина                          : 16 бит
    Метод сжатия                             : С потерями
    Размер потока                            : 530 Мбайт (7%)
    Заголовок                                : VO [Max Nabokov]
    Язык                                     : Russian
    Default                                  : Нет
    Forced                                   : Нет
    Аудио #3
    Идентификатор                            : 4
    Формат                                   : AC-3
    Формат/Информация                        : Audio Coding 3
    Расширение режима                        : CM (complete main)
    Параметр Endianness формата              : Big
    Идентификатор кодека                     : A_AC3
    Продолжительность                        : 1 ч. 55 м.
    Вид битрейта                             : Постоянный
    Битрейт                                  : 640 Кбит/сек
    Каналы                                   : 6 каналов
    Расположение каналов                     : Front: L C R, Side: L R, LFE
    Частота                                  : 48,0 КГц
    Битовая глубина                          : 16 бит
    Метод сжатия                             : С потерями
    Размер потока                            : 530 Мбайт (7%)
    Язык                                     : English
    Default                                  : Нет
    Forced                                   : Нет
    Текст #1
    Идентификатор                            : 5
    Формат                                   : UTF-8
    Идентификатор кодека                     : S_TEXT/UTF8
    Идентификатор кодека/Информация          : UTF-8 Plain Text
    Заголовок                                : SDH
    Язык                                     : English
    Default                                  : Нет
    Forced                                   : Нет
    Текст #2
    Идентификатор                            : 6
    Формат                                   : UTF-8
    Идентификатор кодека                     : S_TEXT/UTF8
    Идентификатор кодека/Информация          : UTF-8 Plain Text
    Язык                                     : Ukrainian
    Default                                  : Нет
    Forced                                   : Нет
    Меню
    00:00:00.000                             : :00:00:00.000
    00:11:28.479                             : :00:11:28.479
    00:20:33.023                             : :00:20:33.023
    00:25:23.272                             : :00:25:23.272
    00:32:37.205                             : :00:32:37.205
    00:41:10.677                             : :00:41:10.677
    00:49:41.312                             : :00:49:41.312
    01:00:03.099                             : :01:00:03.099
    01:06:38.244                             : :01:06:38.244
    01:17:00.449                             : :01:17:00.449
    01:26:36.358                             : :01:26:36.358
    01:36:18.856                             : :01:36:18.856
    01:41:23.911                             : :01:41:23.911
    01:49:14.006                             : :01:49:14.006

    x264 Info

    x264 [info]: frame I:935 Avg QP:12.59 size: 85299
    x264 [info]: frame P:29727 Avg QP:13.93 size: 52113
    x264 [info]: frame B:135874 Avg QP:14.57 size: 33922
    x264 [info]: consecutive B-frames: 1.0% 0.8% 3.1% 6.1% 11.8% 59.2% 7.9% 1.4% 4.7% 4.0%

  • _________________
    Показать сообщения:    

    Текущее время: Сегодня 16:55

    Часовой пояс: GMT



    Вы не можете начинать темы
    Вы не можете отвечать на сообщения
    Вы не можете редактировать свои сообщения
    Вы не можете удалять свои сообщения
    Вы не можете голосовать в опросах
    Вы не можете прикреплять файлы к сообщениям
    Вы не можете скачивать файлы