Важное объявление!
У Нас Все раздачи мультитрекерные, при нуле пиров в релизах, можете смело вставать на закачку!
 
Автор Сообщение

HUNTER

Стаж:
4 года 4 месяца
Сообщений:
56734

Репутация: 101

[+] [-]
Вне форума [Профиль] [ЛС]

Египетская сказка / Сказка о Египте / A Tale of Egypt
Страна: США (Golden Films)
Жанр: Мультфильм, семейный, фэнтези
Продолжительность: 00:45:04
Год выпуска: 1998
Перевод 1: Профессиональный (дублированный)
Перевод 2: Профессиональный (многоголосый закадровый)
Русские субтитры: нет
Режиссёр: Питер Бигл / Peter S. Beagle, Диана Эшкенази / Diane Eskenazi-Описание: Однажды дочь фараона спасла из вод Нила младенца Моисея, он остался жить при дворе и стал лучшим другом Рамзеса II, избалованного царского сына. Повзрослев, юный израильтянин Моисей начинает понимать, что египетские властители очень жестоко обращаются с народом израилевым, и осознаёт свое предназначение: спасти этих людей от рабства. Он решает увести израильтян из Египта, путь их лежит через пустыню. В погоню за беглецами пускается бывший друг Моисея, злобный Рамзес, ставший фараоном. Моисей смело ведет свой народ, веря в его избавление от страданий, но на этом сложном пути помочь им сможет только чудо!-Доп. материалы: Анонсы других мультфильмов студии Golden Films
Качество: DVD5 (Custom)
Формат: DVD-video
Видео: MPEG-2 PAL, 720x576, 25fps, ~6000 Kb/s
Аудио 1: AC3, 48khz, 2ch, 192 kb/s, (Русский, Dub)
Аудио 2: AC3, 48khz, 2ch, 192 kb/s, (Русский, MVO)
Аудио 3: AC3, 48khz, 6ch, 448 kb/s, English
Аудио 4: AC3, 48khz, 6ch, 448 kb/s, Deutsch
Субтитры: отсутствуют"
Релиз: Благодарность xfiles за аудиодорожку с дубляжом.

DVDInfo

Title: A tale of Egypt 1998 DVD5Size: 2.33 Gb ( 2 439 614,00 KBytes ) - DVD-5Enabled regions: 1, 2, 3, 4, 5, 6, 7, 8
VTS_01 : Play Length: 00:45:04 Video: PAL 4:3 (720x576) VBR Audio: Russian (Dolby AC3, 2 ch) Russian (Dolby AC3, 2 ch) English (Dolby AC3, 6 ch) Deutsch (Dolby AC3, 6 ch)
VTS_02 : Play Length: 00:00:19 Video: PAL 4:3 (720x576) VBR Audio: Not specified (Dolby AC3, 2 ch)
* Menus Information *
VIDEO_TS MenuVideo: NTSC 4:3 (720x480) VBR Auto Pan&Scan, Auto LetterboxedEnglish Language Unit :
VTS_01 MenuVideo: PAL 4:3 (720x576) VBRAudio: Not specified (Dolby AC3, 2 ch)English Language Unit : Root Menu Audio Menu
VTS_02 MenuVideo: NTSC 4:3 (720x480) VBR Auto Pan&Scan, Auto LetterboxedEnglish Language Unit : Root Menu Angle menu

MediaInfo

ОбщееПолное имя : E:\MULTFILMS\A tale of Egypt 1998 DVD5\VTS_01_1.VOBФормат : MPEG-PSРазмер файла : 1024 МбайтПродолжительность : 19 м.Режим общего битрейта : ПеременныйОбщий поток : 7375 Кбит/сек
ВидеоИдентификатор : 224 (0xE0)Формат : MPEG VideoВерсия формата : Version 2Профиль формата : Main@MainПараметр BVOP формата : ДаПараметр матрицы формата : По умолчаниюПараметр GOP формата : M=3, N=12Продолжительность : 19 м.Вид битрейта : ПеременныйБитрейт : 6000 Кбит/секШирина : 720 пикселейВысота : 576 пикселейСоотношение сторон : 4:3Частота кадров : 25,000 кадров/секСтандарт вещания : PALЦветовое пространство : YUVСубдискретизация насыщенности : 4:2:0Битовая глубина : 8 битТип развёртки : ЧересстрочнаяПорядок развёртки : Нижнее поле первоеМетод сжатия : С потерямиБит/(Пиксели*Кадры) : 0.579Временной код первого кадра : 00:00:00:00Оригинал временного кода : Group of pictures headerРазмер потока : 826 Мбайт (81%)Основные цвета : BT.601 PALХарактеристики трансфера : BT.470 System B, BT.470 System GКоэффициенты матрицы : BT.601
Аудио #1Идентификатор : 189 (0xBD)-128 (0x80)Формат : AC-3Формат/Информация : Audio Coding 3Расширение режима : CM (complete main)Параметр Endianness формата : BigРежим смешивания : DVD-VideoПродолжительность : 19 м.Вид битрейта : ПостоянныйБитрейт : 192 Кбит/секКаналы : 2 каналаРасположение каналов : Front: L RЧастота : 48,0 КГцБитовая глубина : 16 битМетод сжатия : С потерямиРазмер потока : 26,7 Мбайт (3%)
Аудио #2Идентификатор : 189 (0xBD)-129 (0x81)Формат : AC-3Формат/Информация : Audio Coding 3Расширение режима : CM (complete main)Параметр Endianness формата : BigРежим смешивания : DVD-VideoПродолжительность : 19 м.Вид битрейта : ПостоянныйБитрейт : 192 Кбит/секКаналы : 2 каналаРасположение каналов : Front: L RЧастота : 48,0 КГцБитовая глубина : 16 битМетод сжатия : С потерямиРазмер потока : 26,7 Мбайт (3%)
Аудио #3Идентификатор : 189 (0xBD)-130 (0x82)Формат : AC-3Формат/Информация : Audio Coding 3Расширение режима : CM (complete main)Параметр Endianness формата : BigРежим смешивания : DVD-VideoПродолжительность : 19 м.Вид битрейта : ПостоянныйБитрейт : 448 Кбит/секКаналы : 6 каналовРасположение каналов : Front: L C R, Side: L R, LFEЧастота : 48,0 КГцБитовая глубина : 16 битМетод сжатия : С потерямиРазмер потока : 62,2 Мбайт (6%)
Аудио #4Идентификатор : 189 (0xBD)-131 (0x83)Формат : AC-3Формат/Информация : Audio Coding 3Расширение режима : CM (complete main)Параметр Endianness формата : BigРежим смешивания : DVD-VideoПродолжительность : 19 м.Вид битрейта : ПостоянныйБитрейт : 448 Кбит/секКаналы : 6 каналовРасположение каналов : Front: L C R, Side: L R, LFEЧастота : 48,0 КГцБитовая глубина : 16 битМетод сжатия : С потерямиРазмер потока : 62,2 Мбайт (6%)
Меню

Скриншоты меню

Скриншоты


Информация по сборке

Диск собран из немецкого DVD.
Используемый софт:
BeSweet+BeLight (Распаковка звука в формат wav)
Adobe Audition (Синхронизация аудио)
Minnetonka Audio (Конвертация звука в формат Dolby AC3)
PgcDemux (Разборка диска)
MuxMan (Сборка диска)
Adobe Photoshop (Редактирование пунктов меню)
DVDSubEdit (Редактирование подсветки кнопок меню)
DVDRemakePro (Реавторинг DVD)

_________________
Показать сообщения:    

Текущее время: Сегодня 09:05

Часовой пояс: GMT



Вы не можете начинать темы
Вы не можете отвечать на сообщения
Вы не можете редактировать свои сообщения
Вы не можете удалять свои сообщения
Вы не можете голосовать в опросах
Вы не можете прикреплять файлы к сообщениям
Вы не можете скачивать файлы