Важное объявление!
У Нас Все раздачи мультитрекерные, при нуле пиров в релизах, можете смело вставать на закачку!
Статистика раздачи
Размер:  1.98 GB   |    Зарегистрирован:  3 года 6 месяцев   |    Скачан:  0 раз    |   
Сидов:  7  [  0 KB/s  ]   Личеров:  2  [  0 KB/s  ]   Подробная статистика пиров
 
     
 
 
Автор Сообщение

димитри37

Стаж:
3 года 8 месяцев
Сообщений:
1237

Репутация: 127

[+] [-]
Вне форума [Профиль] [ЛС]

Сегодня вечером с Андреем Малаховым. Евровидение 2013. До и после (Эфир 18.05.2013)
Год выпуска: 2013
Страна: Россия
Студия: Первый канал
Жанр: Тв-шоу
Продолжительность: 01:26:18 + 00:27:35
Перевод: Не требуется
Русские субтитры: нет
Описание: Субботний вечер — самое оптимальное время, чтобы отвлечься от проблем и немного расслабиться. Во всем мире в субботу вечером идут в эфире субботние ток-шоу. В России жанр ток-шоу лучше всех освоил Андрей Малахов. Встречайте новый проект "Сегодня вечером с Андреем Малаховым"! Градус дискуссий в программе «Сегодня вечером с Андреем Малаховым» будет гораздо меньше, чем в проекте "Пусть говорят". Ведь вечером выходного дня не хочется думать о серьезных вещах и глобальных проблемах. В студии проекта "Сегодня вечером с Андреем Малаховым" только знаменитые гости: актеры, певцы и музыканты.
В этом выпуске: Евровидение 2013. До и после. Выпуск программы "Сегодня вечером" выходит в эфир перед и после прямой трансляцией финала песенного конкурса "Евровидение-2013", который проходит в шведском городе Мальме, и посвящен этому конкурсу и российской участнице – Дине Гариповой.
Доп. информация: Релиз -

Рип чистый. Без посторонних надписей. Выкладывается как есть.
Качество: HDTVRip
Формат: AVI
Видео кодек: XVID
Аудио кодек: MP2
Видео: 720x400 (16:9) 25.00fps 2 100 Kbps, 0.292 bit/pixel
Аудио: AC3 384 Kbps, 2 channels

Скриншоты


Скринлисты

MI

GeneralComplete name : L:\ВЫКЛАДКА\Евровидение 2013. До и после - Сегодня вечером с Андреем Малаховым (2013, Тв-шоу, HDTVRip) (MYDIMKA)\01 - До.aviFormat : AVIFormat/Info : Audio Video InterleaveFile size : 1.50 GiBDuration : 1h 26mnOverall bit rate : 2 493 KbpsWriting application : VirtualDubMod 1.5.10.2 (build 2540/release)Writing library : VirtualDubMod build 2540/release
VideoID : 0Format : MPEG-4 VisualFormat profile : Advanced Simple@L5Format settings, BVOP : 2Format settings, QPel : NoFormat settings, GMC : No warppointsFormat settings, Matrix : Default (H.263)Muxing mode : Packed bitstreamCodec ID : XVIDCodec ID/Hint : XviDDuration : 1h 26mnBit rate : 2 099 KbpsWidth : 720 pixelsHeight : 400 pixelsDisplay aspect ratio : 16:9Frame rate : 25.000 fpsColor space : YUVChroma subsampling : 4:2:0Bit depth : 8 bitsScan type : ProgressiveCompression mode : LossyBits/(Pixel*Frame) : 0.292Stream size : 1.27 GiB (84%)Writing library : XviD 1.2.1 (UTC 2008-12-04)
AudioID : 1Format : AC-3Format/Info : Audio Coding 3Mode extension : CM (complete main)Format settings, Endianness : BigCodec ID : 2000Duration : 1h 26mnBit rate mode : ConstantBit rate : 384 KbpsChannel(s) : 2 channelsChannel positions : Front: L RSampling rate : 48.0 KHzBit depth : 16 bitsCompression mode : LossyStream size : 237 MiB (15%)Alignment : Split accross interleavesInterleave, duration : 40 ms (1.00 video frame)Interleave, preload duration : 500 ms
-
[iv-torrents.ru].t3622.torrent 
Торрент: Зарегистрирован   [ 2013-05-19 04:59 ]

Скачать .torrent

Скачать

21 KB

Статус: проверено
Скачан торрент файл: 317
Размер: 1.98 GB  ·  Тип торрента
Оценка релиза:  Средний балл: 0.0 (0 голосов, вы еще не оценили этот релиз)
Поблагодарили: Спасибо
 
Похожие темы

Пожертвовать руб.
Показать сообщения:    

Текущее время: Сегодня 23:32

Часовой пояс: GMT



Вы не можете начинать темы
Вы не можете отвечать на сообщения
Вы не можете редактировать свои сообщения
Вы не можете удалять свои сообщения
Вы не можете голосовать в опросах
Вы не можете прикреплять файлы к сообщениям
Вы можете скачивать файлы