Важное объявление!
У Нас Все раздачи мультитрекерные, при нуле пиров в релизах, можете смело вставать на закачку!
Статистика раздачи
Размер:  3.88 GB   |    Зарегистрирован:  3 года 6 месяцев   |    Скачан:  0 раз    |   
Сидов:  50  [  0 KB/s  ]   Личеров:  57  [  0 KB/s  ]   Подробная статистика пиров
 
     
 
 
Автор Сообщение

димитри37

Стаж:
3 года 9 месяцев
Сообщений:
1237

Репутация: 127

[+] [-]
Вне форума [Профиль] [ЛС]

Евровидение 2013. 1-й и 2-й полуфиналы. (Eurovision 2013, 1-2-st semifinal)
Страна: Швеция.
Жанр: Pop
Продолжительность: 01:50:43 + 01:52:38
Год выпуска: 2013 г.
Описание: «Евровидение» — это конкурс эстрадной песни среди участников стран Европы. В конкурсе участвуют по одному представителю от каждой из стран-членов Европейского вещательного союза. От каждой страны в конкурсе участвует один представитель (солист или группа не более 6 участников), исполняющий песню длительностью не более 3-х минут. После выступления всех участников наиболее популярная песня определяется путeм телеголосования.
Треклист:
01. Австрия - Наталия Келли (Natalia Kelly), "Shine"
02. Эстония - Биргит (Birgit), "Et Uus Saaks Alguse"
03. Словения - Ханна (Hannah), "Straight Into Love"
04. Хорватия - группа "Klapa s mora", "Mižerja"
05. Дания - Эмили де Форест (Emmelie de Forest), "Only Teardrops"
06. Россия - Дина Гарипова, "What If"
07. Украина - Злата Огневич, "Gravity"
08. Нидерланды - Анук (Anouk), "Birds"
09. Черногория - дуэт "Who See", "Igranka"
10. Литва - Андриус Появис (Andrius Pojavis), "Something"
11. Беларусь - Алена Ланская, "Solayoh"
12. Молдова - Алена Мун (Aliona Moon), "O Mie"
13. Ирландия - Райан Долан (Ryan Dolan), "Only Love Survives"
14. Кипр - Деспина Олимпиу (Despina Olympiou), "An Me Thimasai"
15. Бельгия - Роберто Беллароса (Roberto Bellarosa), "Love Kills"
16. Сербия - трио "Moje 3", "Ljubav Je Svuda"
Источник: собственный рип
Доп. информация: Релиз -

Рип чистый. Без посторонних надписей. Выкладывается как есть.
Качество: HDTVRip
Формат: AVI
Видео кодек: XVID
Аудио кодек: MP2
Видео: 720x400 (16:9) 25.00fps 2 100 Kbps, 0.292 bit/pixel
Аудио: AC3 384 Kbps, 2 channels

Скриншоты


Скринлист

Постер HQ

MI

GeneralComplete name : J:\ВЫКЛАДКА\RIP\Евровидение 2013 (Eurovision 2013) (2013, Pop, HDTVRip) (Первый канал) (MYDIMKA)\01 - Первый полуфинал (1-st semifinal).aviFormat : AVIFormat/Info : Audio Video InterleaveFile size : 1.92 GiBDuration : 1h 50mnOverall bit rate : 2 487 KbpsWriting application : VirtualDubMod 1.5.10.2 (build 2540/release)Writing library : VirtualDubMod build 2540/release
VideoID : 0Format : MPEG-4 VisualFormat profile : Advanced Simple@L5Format settings, BVOP : 2Format settings, QPel : NoFormat settings, GMC : No warppointsFormat settings, Matrix : Default (H.263)Muxing mode : Packed bitstreamCodec ID : XVIDCodec ID/Hint : XviDDuration : 1h 50mnBit rate : 2 094 KbpsWidth : 720 pixelsHeight : 400 pixelsDisplay aspect ratio : 16:9Frame rate : 25.000 fpsColor space : YUVChroma subsampling : 4:2:0Bit depth : 8 bitsScan type : ProgressiveCompression mode : LossyBits/(Pixel*Frame) : 0.291Stream size : 1.62 GiB (84%)Writing library : XviD 1.2.1 (UTC 2008-12-04)
AudioID : 1Format : AC-3Format/Info : Audio Coding 3Mode extension : CM (complete main)Format settings, Endianness : BigCodec ID : 2000Duration : 1h 50mnBit rate mode : ConstantBit rate : 384 KbpsChannel(s) : 2 channelsChannel positions : Front: L RSampling rate : 48.0 KHzBit depth : 16 bitsCompression mode : LossyStream size : 304 MiB (15%)Alignment : Split accross interleavesInterleave, duration : 40 ms (1.00 video frame)Interleave, preload duration : 500 ms

Внимание! Раздача ведётся путём добавления новых выпусков

Внимание! Раздача ведётся путём добавления новых выпусков; при каждом добавлении создётся новый торрент. Чтобы начать докачку нового выпуска, пользователям необходимо сделать следующее:
(1) остановить скачивание,
(2) удалить старый торрент у себя из клиента (старые выпуски удалять не надо),
(3) скачать новый торрент и запустить его у себя в клиенте вместо старого, при этом указать клиенту путь в старую папку куда и должно происходить скачивание новых выпусков.
Ваш клиент при этом должен произвести хеширование (проверку) старой папки (если не производит сам - помогите ему сделать это), и будет докачивать только те выпуски которых у вас ещё нет. Старые выпуски при этом не удаляются, а продолжают раздаваться!
Eсли вы уже удалили старые выпуски, то предотвратить повторную закачку старых выпусков можно, отжав галочку в соответсвующих местах при запуске нового торрента. По возможности, желательно не удалять старые выпуски как можно дольше чтобы релизёр не столько продолжал раздавать старые выпуски, а смог сконцентрироваться на новых.
[iv-torrents.ru].t3588.torrent 
Торрент: Зарегистрирован   [ 2013-05-17 04:07 ]

Скачать .torrent

Скачать

20 KB

Статус: проверено
Скачан торрент файл: 318
Размер: 3.88 GB  ·  Тип торрента
Оценка релиза:  Средний балл: 0.0 (0 голосов, вы еще не оценили этот релиз)
Поблагодарили: Спасибо
 
Похожие темы

Пожертвовать руб.
Показать сообщения:    

Текущее время: Сегодня 13:13

Часовой пояс: GMT



Вы не можете начинать темы
Вы не можете отвечать на сообщения
Вы не можете редактировать свои сообщения
Вы не можете удалять свои сообщения
Вы не можете голосовать в опросах
Вы не можете прикреплять файлы к сообщениям
Вы можете скачивать файлы