Важное объявление!
У Нас Все раздачи мультитрекерные, при нуле пиров в релизах, можете смело вставать на закачку!
 
Автор Сообщение

HUNTER

Стаж:
4 года 4 месяца
Сообщений:
56749

Репутация: 101

[+] [-]
Вне форума [Профиль] [ЛС]

Дюки из Хаззарда: Встреча давних знакомых / Придурки из Хаззарда: Воссоединение / The Dukes of Hazzard: Reunion
Страна: США
Жанр: комедия
Год выпуска: 1997
Продолжительность: 01:32:50
Перевод: Одноголосый закадровый Russianguy27
Cубтитры: английские, французские, португальские, испанские
Оригинальная аудиодорожка: английский
Режиссер: Льюис Тиг / Lewis Teague
В ролях: Джон Шнайдер / John Schneider, Том Вопат / Tom Wopat, Катрин Бак / Catherine Bach, Денвер Пайл / Denver Pyle, Джеймс Бест / James Best, Бен Джоунс / Ben Jones, Санни Шройер / Sonny Shroyer, Рик Хёрст / Rick Hurst, Синтия Ротрок / Cynthia Rothrock
Описание: Первый фильм, снятый по мотивам культового американского сериала "Дюки из Хаззарда"(The Dukes of Hazzard).Полюбившиеся персонажи встречаются спустя много лет в родном поселке, что в округе Хаззард. В этот раз им придется спасти хаззардское болото. Коварный застройщик Мамаша Макс собирается построить на нем парк развлечений, а чтобы этого избежать и сохранить свою ферму Дюки должны выиграть в старой-доброй гонке самогонщиков. Но не все так просто. Мамаша Макс готова пойти на все, вплоть до похищения Дейзи.В фильме приняла участие звезда боевиков неповторимая Синтия Ротрок
Доп. информация: Русская звуковая дорожка взята с этой раздачи http://rutracker.org/forum/viewtopic.php?t=3753414 автору большое спасибо.
При пересборе двд были использованы программы:
PgcDemux - разделение компонентов диска на файлы
Muxman - мультиплексирование и авторинг DVD
VobBlanker - реавторинг DVD

Скрин завершения проекта

Сэмпл: http://sendfile.su/1102521
Тип релиза: DVD5 (Custom)
Контейнер: DVD-Video
Видео: NTSC 4:3 (720x480) VBR
Аудио: Russian (Dolby AC3, 192 Кбит/сек, 2 ch)
Аудио 2: English (Dolby AC3, 192 Кбит/сек, 2 ch)
Формат субтитров: prerendered (Blu-ray/PGS/SUP)

DVDInfo

Size: 4.05 Gb ( 4 242 370 KBytes ) - DVD-5
Enabled regions: 1, 2, 3, 4, 5, 6
VTS_01 :
Play Length: 01:30:31+00:00:12+00:00:21+00:01:17+00:00:29
Video: NTSC 4:3 (720x480) VBR
Audio:
Russian (Dolby AC3, 2 ch)
English (Dolby AC3, 2 ch)
Subtitles:
English
Francais
Portugues
Espanol
VTS_02 :
Play Length: 00:00:16
Video: NTSC 16:9 (720x480) VBR, Auto Pan&Scan
Audio:
English (Dolby AC3, 2 ch)
Subtitles:
English
Francais
Portugues
Espanol
VTS_03 :
Play Length: 00:01:00+00:03:17
Video: NTSC 4:3 (720x480) VBR
Audio:
English (Dolby AC3, 2 ch)
Subtitles:
Not specified
Menu Video:
NTSC 4:3 (720x480) VBR
Menu English Language Unit :
Root Menu

MediaInfo

Общее
Полное имя : M:\The Dukes of Hazzard - Reunion!_1997\VIDEO_TS\VTS_01_1.VOB
Формат : MPEG-PS
Размер файла : 1024 Мбайт
Продолжительность : 23 м.
Режим общего битрейта : Переменный
Общий поток : 6014 Кбит/сек
Видео
Идентификатор : 224 (0xE0)
Формат : MPEG Video
Версия формата : Version 2
Профиль формата : Main@Main
Параметр BVOP формата : Да
Параметр матрицы формата : Выборочная
Параметр GOP формата : M=3, N=15
Продолжительность : 23 м.
Вид битрейта : Переменный
Битрейт : 5510 Кбит/сек
Максимальный битрейт : 7500 Кбит/сек
Ширина : 720 пикселей
Высота : 480 пикселей
Соотношение сторон : 4:3
Частота кадров : 29,970 кадров/сек
Стандарт вещания : NTSC
Цветовое пространство : YUV
Субдискретизация насыщенности : 4:2:0
Битовая глубина : 8 бит
Тип развёртки : Чересстрочная
Порядок развёртки : Верхнее поле первое
Метод сжатия : С потерями
Бит/(Пиксели*Кадры) : 0.532
Размер потока : 938 Мбайт (92%)
Аудио #1
Идентификатор : 189 (0xBD)-128 (0x80)
Формат : AC-3
Формат/Информация : Audio Coding 3
Расширение режима : CM (complete main)
Параметр Endianness формата : Big
Режим смешивания : DVD-Video
Продолжительность : 23 м.
Вид битрейта : Постоянный
Битрейт : 192 Кбит/сек
Каналы : 2 канала
Расположение каналов : Front: L R
Частота : 48,0 КГц
Битовая глубина : 16 бит
Метод сжатия : С потерями
Задержка видео : -66 мс.
Размер потока : 32,7 Мбайт (3%)
Аудио #2
Идентификатор : 189 (0xBD)-129 (0x81)
Формат : AC-3
Формат/Информация : Audio Coding 3
Профиль формата : Dolby Digital
Расширение режима : CM (complete main)
Параметр Endianness формата : Big
Режим смешивания : DVD-Video
Продолжительность : 23 м.
Вид битрейта : Постоянный
Битрейт : 192 Кбит/сек
Каналы : 2 канала
Расположение каналов : Front: L R
Частота : 48,0 КГц
Битовая глубина : 16 бит
Метод сжатия : С потерями
Задержка видео : -66 мс.
Размер потока : 32,7 Мбайт (3%)
Текст #1
Идентификатор : 189 (0xBD)-34 (0x22)
Формат : RLE
Формат/Информация : Run-length encoding
Режим смешивания : DVD-Video
Продолжительность : 23 м.
Задержка видео : 6 с. 407 мс.
Текст #2
Идентификатор : 189 (0xBD)-35 (0x23)
Формат : RLE
Формат/Информация : Run-length encoding
Режим смешивания : DVD-Video
Продолжительность : 23 м.
Задержка видео : 5 с. 406 мс.
Текст #3
Идентификатор : 189 (0xBD)-32 (0x20)
Формат : RLE
Формат/Информация : Run-length encoding
Режим смешивания : DVD-Video
Текст #4
Идентификатор : 189 (0xBD)-33 (0x21)
Формат : RLE
Формат/Информация : Run-length encoding
Режим смешивания : DVD-Video
Меню

Постеры

Скриншоты меню


_________________
Показать сообщения:    

Текущее время: Сегодня 04:00

Часовой пояс: GMT



Вы не можете начинать темы
Вы не можете отвечать на сообщения
Вы не можете редактировать свои сообщения
Вы не можете удалять свои сообщения
Вы не можете голосовать в опросах
Вы не можете прикреплять файлы к сообщениям
Вы не можете скачивать файлы