Важное объявление!
У Нас Все раздачи мультитрекерные, при нуле пиров в релизах, можете смело вставать на закачку!
 
Автор Сообщение

HUNTER

Стаж:
4 года 4 месяца
Сообщений:
56720

Репутация: 101

[+] [-]
Вне форума [Профиль] [ЛС]

Дух мщения / Перехватчик / The Wraith
Год выпуска: 1986
Страна: США
Жанр: фантастика, боевик, триллер, мелодрама
Продолжительность: 01:33:11
Перевод1: Профессиональный (многолосый, закадровый)(студия "Велес" (2009 г. по заказу «CP-Digital»))
Перевод2: Профессиональный (многолосый, закадровый)(студия "СВ-Кадр" (1996 г.) ТВ6)
Перевод3: Профессиональный (двухголосый, закадровый)(ТВ6)
Перевод4: Авторский (одноголосый, закадровый)(Ю.Немахов)
Субтитры: русские, английские
Оригинальная аудиодорожка: английский
Режиссер: Майк Марвин / Mike Marvin
В ролях: Чарли Шин, Ник Кассаветис, Шерилин Фенн, Рэнди Куэйд, Мэттью Бэрри, Дэвид Шерилл, Джэми Бозиан, Клинт Ховард, Гриффин О’Нил, Крис Нэш, Стивен Экхольд, Элизабет Кокс, Кристофер Брэдли, Брук Бурк
Описание: Банда подростков останавливают водителей и заставляют их участвовать в гонках, ставка в которых — машина, принадлежащая несчастным, попавшимся им на пути. Молодой парень, погибший от рук этих бандитов, возвращается с того света в виде призрака на черном гоночном автомобиле и начинает мстить за свою смерть, вызывая подонков на дуэль и убивая их одного за одним…
Исходник The Wraith 1986 1080p ITA Blu-ray AVC DD 2.0-SKG, по сравнению с японским блюром http://rutracker.org/forum/viewtopic.php?t=4305228 здесь качество картинки гораздо выше, более полный кадр и нет рывков видео, т.к. правильная частота кадров 23,976 http://screenshotcomparison.com/comparison/115001 .

Качество: BDRemux 1080p
Формат: MKV
Видео кодек: H.264
Аудио кодек: AC3
Видео: 1920 x 1080 / MPEG-4 AVC Video / 25280 kbps / 1080p / 23.976 fps / 16:9 / High Profile 4.1
Аудио1: Русский, AC3 5.1 448 Kbps 48,0 КГц(MVO "Veles" (CP-Digital))
Аудио2: Русский, AC3 5.1 448 Kbps 48,0 КГц(MVO "SV-Kadr" (TV6))
Аудио3: Русский, AC3 2.0 192 Kbps 48,0 КГц(DVO TV3)
Аудио4: Русский, AC3 5.1 448 Kbps 48,0 КГц(Nemakhov)
Аудио5: English, AC3 2.0 192 Kbps 48,0 КГц(Original)
Аудио6: English, AC3 5.1 448 Kbps 48,0 КГц(Original)
Субтитры: Softsub (SRT)
Главы

MediaInfo

Общее
Уникальный идентификатор : 234508126470479369542028427900218804449 (0xB06C9F4EDDF2023D8AF54FCE479888E1)
Полное имя : F:\The.Wraith.1986.BDRemux.1080p.4xRus.Eng.mkv
Формат : Matroska
Версия формата : Version 4 / Version 2
Размер файла : 17,9 Гбайт
Продолжительность : 1 ч. 33 м.
Режим общего битрейта : Переменный
Общий поток : 27,5 Мбит/сек
Название фильма : The Wraith
Дата кодирования : UTC 2015-03-09 08:13:46
Программа кодирования : mkvmerge v7.3.0 ('Nouages') 32bit built on Oct 22 2014 18:44:01
Библиотека кодирования : libebml v1.3.0 + libmatroska v1.4.1
_STATISTICS_WRITING_APP : mkvmerge v7.3.0 ('Nouages') 32bit built on Oct 22 2014 18:44:01
_STATISTICS_WRITING_DATE_UTC : 2015-03-09 08:13:46
_STATISTICS_TAGS : BPS DURATION NUMBER_OF_FRAMES NUMBER_OF_BYTES
DURATION : 01:32:11.425000000
NUMBER_OF_FRAMES : 1379
NUMBER_OF_BYTES : 35509
Видео
Идентификатор : 1
Формат : AVC
Формат/Информация : Advanced Video Codec
Профиль формата : High@L4.1
Параметр CABAC формата : Да
Параметр ReFrames формата : 3 кадра
Идентификатор кодека : V_MPEG4/ISO/AVC
Продолжительность : 1 ч. 33 м.
Вид битрейта : Переменный
Битрейт : 24,7 Мбит/сек
Максимальный битрейт : 32,0 Мбит/сек
Ширина : 1920 пикселей
Высота : 1080 пикселей
Соотношение сторон : 16:9
Режим частоты кадров : Постоянный
Частота кадров : 23,976 кадра/сек
Стандарт вещания : NTSC
Цветовое пространство : YUV
Субдискретизация насыщенности : 4:2:0
Битовая глубина : 8 бит
Тип развёртки : Прогрессивная
Бит/(Пиксели*Кадры) : 0.497
Размер потока : 16,1 Гбайт (90%)
Заголовок : The Wraith 1986 1080p ITA Blu-ray AVC DD 2.0-SKG
Default : Нет
Forced : Нет
Основные цвета : BT.709
Характеристики трансфера : BT.709
Коэффициенты матрицы : BT.709
Аудио #1
Идентификатор : 2
Формат : AC-3
Формат/Информация : Audio Coding 3
Расширение режима : CM (complete main)
Параметр Endianness формата : Big
Идентификатор кодека : A_AC3
Продолжительность : 1 ч. 33 м.
Вид битрейта : Постоянный
Битрейт : 448 Кбит/сек
Каналы : 6 каналов
Расположение каналов : Front: L C R, Side: L R, LFE
Частота : 48,0 КГц
Битовая глубина : 16 бит
Метод сжатия : С потерями
Размер потока : 299 Мбайт (2%)
Заголовок : MVO "Veles" (CP-Digital) AC3 5.1 448 kbps
Язык : Russian
Default : Нет
Forced : Нет
Аудио #2
Идентификатор : 3
Формат : AC-3
Формат/Информация : Audio Coding 3
Расширение режима : CM (complete main)
Параметр Endianness формата : Big
Идентификатор кодека : A_AC3
Продолжительность : 1 ч. 33 м.
Вид битрейта : Постоянный
Битрейт : 448 Кбит/сек
Каналы : 6 каналов
Расположение каналов : Front: L C R, Side: L R, LFE
Частота : 48,0 КГц
Битовая глубина : 16 бит
Метод сжатия : С потерями
Размер потока : 299 Мбайт (2%)
Заголовок : MVO "SV-Kadr" (TV6) AC3 5.1 448 kbps
Язык : Russian
Default : Нет
Forced : Нет
Аудио #3
Идентификатор : 4
Формат : AC-3
Формат/Информация : Audio Coding 3
Расширение режима : CM (complete main)
Параметр Endianness формата : Big
Идентификатор кодека : A_AC3
Продолжительность : 1 ч. 33 м.
Вид битрейта : Постоянный
Битрейт : 192 Кбит/сек
Каналы : 2 канала
Расположение каналов : Front: L R
Частота : 48,0 КГц
Битовая глубина : 16 бит
Метод сжатия : С потерями
Размер потока : 128 Мбайт (1%)
Заголовок : DVO TV3 AC3 2.0 192 kbps
Язык : Russian
Default : Нет
Forced : Нет
Аудио #4
Идентификатор : 5
Формат : AC-3
Формат/Информация : Audio Coding 3
Расширение режима : CM (complete main)
Параметр Endianness формата : Big
Идентификатор кодека : A_AC3
Продолжительность : 1 ч. 33 м.
Вид битрейта : Постоянный
Битрейт : 448 Кбит/сек
Каналы : 6 каналов
Расположение каналов : Front: L C R, Side: L R, LFE
Частота : 48,0 КГц
Битовая глубина : 16 бит
Метод сжатия : С потерями
Размер потока : 299 Мбайт (2%)
Заголовок : Nemakhov AC3 5.1 448 kbps
Язык : Russian
Default : Нет
Forced : Нет
Аудио #5
Идентификатор : 6
Формат : AC-3
Формат/Информация : Audio Coding 3
Расширение режима : CM (complete main)
Параметр Endianness формата : Big
Идентификатор кодека : A_AC3
Продолжительность : 1 ч. 33 м.
Вид битрейта : Постоянный
Битрейт : 192 Кбит/сек
Каналы : 2 канала
Расположение каналов : Front: L R
Частота : 48,0 КГц
Битовая глубина : 16 бит
Метод сжатия : С потерями
Размер потока : 128 Мбайт (1%)
Заголовок : Original AC3 2.0 192 kbps
Язык : English
Default : Нет
Forced : Нет
Аудио #6
Идентификатор : 7
Формат : AC-3
Формат/Информация : Audio Coding 3
Расширение режима : CM (complete main)
Параметр Endianness формата : Big
Идентификатор кодека : A_AC3
Продолжительность : 1 ч. 33 м.
Вид битрейта : Постоянный
Битрейт : 448 Кбит/сек
Каналы : 6 каналов
Расположение каналов : Front: L C R, Side: L R, LFE
Частота : 48,0 КГц
Битовая глубина : 16 бит
Метод сжатия : С потерями
Размер потока : 299 Мбайт (2%)
Заголовок : Original AC3 5.1 448 kbps
Язык : English
Default : Нет
Forced : Нет
Текст #1
Идентификатор : 8
Формат : UTF-8
Идентификатор кодека : S_TEXT/UTF8
Идентификатор кодека/Информация : UTF-8 Plain Text
Язык : Russian
Default : Нет
Forced : Нет
Текст #2
Идентификатор : 9
Формат : UTF-8
Идентификатор кодека : S_TEXT/UTF8
Идентификатор кодека/Информация : UTF-8 Plain Text
Язык : English
Default : Нет
Forced : Нет
Меню
00:00:00.000 : en:00:00:00.000
00:00:00.375 : en:00:00:00.375
00:17:38.391 : en:00:17:38.391
00:35:14.279 : en:00:35:14.279
00:51:39.263 : en:00:51:39.263
01:09:02.889 : en:01:09:02.889
01:24:47.916 : en:01:24:47.916

_________________
Показать сообщения:    

Текущее время: Сегодня 06:19

Часовой пояс: GMT



Вы не можете начинать темы
Вы не можете отвечать на сообщения
Вы не можете редактировать свои сообщения
Вы не можете удалять свои сообщения
Вы не можете голосовать в опросах
Вы не можете прикреплять файлы к сообщениям
Вы не можете скачивать файлы