Важное объявление!
У Нас Все раздачи мультитрекерные, при нуле пиров в релизах, можете смело вставать на закачку!
 
Автор Сообщение

HUNTER

Стаж:
4 года 4 месяца
Сообщений:
56765

Репутация: 101

[+] [-]
Вне форума [Профиль] [ЛС]

Дух живого леса / Espiritu del bosque-
Страна: Испания
Жанр: мультфильм, семейный
Год выпуска: 2008
Продолжительность: 01:14:37
Перевод: Профессиональный (полное дублирование)
Субтитры: Нет-Режиссер: Дэвид Рубин / David Rubin-Роли озвучивали: Мария Аданес (Linda, озвучка), Шон Эстин (Furi, озвучка), Анжелика Хьюстон (Mrs. D'Abondo, озвучка), Хуан Ибаньес Перез (Hoho, озвучка), Луис Мерло (Cebolo, озвучка), Дамиан Молла Херман (Huhu, озвучка), Рон Перлман (Oak, озвучка), Джованни Рибизи (Cebolo, озвучка)-Роли дублировали: Ирина Киреева (Linda), Дмитрий Курта (Furi), Александр Гаврилин, Александр Груздев, Дмитрий Филимонов, Никита Прозоровский, Ольга Кузнецова, Лариса Брохман (Mrs. D'Abondo), Диомид Виноградов (Hoho), Артем Карапетян, Михаил Гульдан (Huhu), Алексей Борзунов (Oak)-Описание: Влиятельный бизнесмен собирается строить автомагистраль, а злобная миссис Д’Абондо только и ждет повода, чтобы избавиться от Леса. Деревьям Живого леса и старому Дубу грозит опасность, и те советуют животным, обитающим в Лесу, спасаться бегством.
Однако кроты Фури и Линда, а также мышонок Пьорно не собираются сдаваться. К ним присоединяется маленький пугливый крот Себоло, недавно переехавший из города в Лес. На помощь друзьям также приходит клан диких кошек под предводительством храброго Тигра. Даже назойливые мухи Хи-Хи и Хо-Хо решают помочь им.
Когда друзья обнаруживают, что миссис Д’Абондо боится привидений, Фури в голову приходит отличная идея... пробудить Дух Живого Леса.
-Рейтинг:

MPAA: - Рекомендуется присутствие родителей-Бюджет: $20 000 000
Мировая премьера: 12 сентября 2008
Релиз на DVD: 31 марта 2011, «Новый Диск»-Релиз: -Семпл-Качество: DVDRip
Формат: AVI
Видео: 656x368 (1.78:1), 25 fps, XviD build 65 ~1256 kbps avg, 0.21 bit/pixel
Аудио: 48 kHz, MPEG Layer 3, 2 ch, ~128.00 kbps avg
Субтитры: Отсутствуют
-

MI

Format : AVIFormat/Info : Audio Video InterleaveFile size : 744 MiBDuration : 1h 14mnOverall bit rate : 1 395 KbpsWriting application : VirtualDubMod 1.5.10.3 | www.virtualdub-fr.org || (build 2550/release)Writing library : VirtualDubMod build 2550/release
VideoID : 0Format : MPEG-4 VisualFormat profile : Advanced Simple@L5Format settings, BVOP : 2Format settings, QPel : NoFormat settings, GMC : No warppointsFormat settings, Matrix : CustomCodec ID : XVIDCodec ID/Hint : XviDDuration : 1h 14mnBit rate : 1 257 KbpsWidth : 656 pixelsHeight : 368 pixelsDisplay aspect ratio : 16:9Frame rate : 25.000 fpsColor space : YUVChroma subsampling : 4:2:0Bit depth : 8 bitsScan type : ProgressiveCompression mode : LossyBits/(Pixel*Frame) : 0.208Stream size : 671 MiB (90%)Writing library : XviD 65
AudioID : 1Format : MPEG AudioFormat version : Version 1Format profile : Layer 3Codec ID : 55Codec ID/Hint : MP3Duration : 1h 14mnBit rate mode : ConstantBit rate : 128 KbpsChannel(s) : 2 channelsSampling rate : 48.0 KHzCompression mode : LossyStream size : 68.3 MiB (9%)Alignment : Aligned on interleavesInterleave, duration : 40 ms (1.00 video frame)Interleave, preload duration : 504 msWriting library : LAME3.99rEncoding settings : -m s -V 4 -q 2 -lowpass 17 -b 128

_________________
Показать сообщения:    

Текущее время: Сегодня 01:36

Часовой пояс: GMT



Вы не можете начинать темы
Вы не можете отвечать на сообщения
Вы не можете редактировать свои сообщения
Вы не можете удалять свои сообщения
Вы не можете голосовать в опросах
Вы не можете прикреплять файлы к сообщениям
Вы не можете скачивать файлы