Важное объявление!
У Нас Все раздачи мультитрекерные, при нуле пиров в релизах, можете смело вставать на закачку!
 
Автор Сообщение

HUNTER

Стаж:
4 года 4 месяца
Сообщений:
56783

Репутация: 101

[+] [-]
Вне форума [Профиль] [ЛС]

Дурдом на колесах / Дом на колесах / RV: Runaway Vacation«On A Family Vacation, No One Can Hear You Scream»
Страна: Великобритания, Германия, США
Жанр: комедия, приключения, семейный
Год выпуска: 2006
Продолжительность: 01:34:40
-
Перевод 1: Профессиональный (многоголосый закадровый) ВидеоСервис | HDTV
Перевод 2: Профессиональный (многоголосый закадровый) Супербит | DVD
Перевод 3: Авторский (одноголосый закадровый) Евгений Гранкин
Cубтитры: русские [SDH], английские
Оригинальная аудиодорожка: английский
-
Режиссер: Барри Зонненфельд / Barry Sonnenfeld
В ролях: Робин Уильямс, Шерил Хайнс, Джоанна «ДжоДжо» Левески, Джош Хатчерсон, Джефф Дэниелс, Кристин Ченоуэт, Хантер Пэрриш, Хлоя Сонненфельд, Алекс Феррис, Уилл Арнетт
-
Описание: Боб Манро - успешный бизнесмен и прекрасный семьянин. Иными словами, трудоголик на грани нервного срыва и развода, который из-за работы на износ сутками не видит своих жену и детей. Смекнув, что еще несколько месяцев такой жизни, и его браку конец, герой решает использовать положенный отпуск для сплочения близких. В основе его гениального плана - идея о том, что ничто так не объединяет людей, как совместная турпоездка в трейлере через всю страну. Правда, Боб уже обещал жене и детям отдых на Гавайях, так что ему придется очень постараться, дабы оправдать смену пункта назначения на пыльный Колорадо. Иначе до финиша доедет не дружный квартет Манро, вновь обретший утерянные семейные ценности, а дурдом на колесах, обитатели которого почему-то носят одну фамилию!
[img]https://rating.kinopoisk.ru/102215.gif[/img]
>>> Собственная запись со спутника Eutelsat 36A/36B (36°E) | TV1000 Comedy HD (октябрь 2016г.)
Тип релиза: HDTV 1080i
Контейнер: MKV
Видео: MPEG-4 AVC / PAL 16:9 / 1920x1080 (1,78:1) / 9114 kbps / 25,000 fps / 0.088 bit/pixel / High@L4
Аудио 1: Russian / Dolby Digital Audio / 5.1 Ch / 48 kHz / 384 kbps / 16 bit | MVO | HDTV | ВидеоСервис
Аудио 2: Russian / Digital Theater Systems / 5.1 Ch / 48 kHz / 768 kbps / 24 bit | MVO | DVD | Супербит
Аудио 3: Russian / Dolby Digital Audio / 2.0 Ch / 48 kHz / 192 kbps / 16 bit | AVO | Евгений Гранкин
Аудио 4: English / Dolby Digital Audio / 5.1 Ch / 48 kHz / 448 kbps / 16 bit | Original
Формат субтитров: softsub (SRT)
Навигация по главам: есть

Blu-Ray vs. HDTV

Blu-Ray------------------vs.-----------------HDTV

MediaInfo

Код:
Общее
Уникальный идентификатор                 : 247038908996833165356174892456451171232 (0xB9D9F69604501E028E69FF16F9DAE3A0)
Полное имя                               : N:\HDTV\RV_Runaway Vacation 2006 1080i HDTV MPEG4 DD5.1\RV_Runaway Vacation 2006 1080i HDTV MPEG4 DD5.1.mkv
Формат                                   : Matroska
Версия формата                           : Version 4 / Version 2
Размер файла                             : 7,21 Гбайт
Продолжительность                        : 1 ч. 34 м.
Общий поток                              : 10,9 Мбит/сек
Название фильма                          : Release for RuTracker © flaSI-I
Дата кодирования                         : UTC 2016-10-16 18:50:32
Программа кодирования                    : mkvmerge v9.4.2 ('So High') 64bit
Библиотека кодирования                   : libebml v1.3.4 + libmatroska v1.4.5
Видео
Идентификатор                            : 1
Формат                                   : AVC
Формат/Информация                        : Advanced Video Codec
Профиль формата                          : High@L4
Параметр CABAC формата                   : Да
Параметр ReFrames формата                : 4 кадра
Параметр GOP формата                     : M=4, N=28
Идентификатор кодека                     : V_MPEG4/ISO/AVC
Продолжительность                        : 1 ч. 34 м.
Битрейт                                  : 9114 Кбит/сек
Ширина                                   : 1920 пикселей
Высота                                   : 1080 пикселей
Соотношение сторон                       : 16:9
Режим частоты кадров                     : Переменный
Частота кадров                           : 50,000 кадров/сек
Частота кадров в оригинале               : 25,000 кадров/сек
Стандарт вещания                         : Component
Цветовое пространство                    : YUV
Субдискретизация насыщенности            : 4:2:0
Битовая глубина                          : 8 бит
Тип развёртки                            : Чересстрочная
Метод сохранения типа развёртки          : Раздельные поля
Порядок развёртки                        : Верхнее поле первое
Бит/(Пиксели*Кадры)                      : 0.088
Размер потока                            : 6,02 Гбайт (84%)
Язык                                     : English
Default                                  : Да
Forced                                   : Нет
Цветовой диапазон                        : Limited
Основные цвета                           : BT.709
Характеристики трансфера                 : BT.709
Коэффициенты матрицы                     : BT.709
Аудио #1
Идентификатор                            : 2
Формат                                   : AC-3
Формат/Информация                        : Audio Coding 3
Расширение режима                        : CM (complete main)
Параметр Endianness формата              : Big
Идентификатор кодека                     : A_AC3
Продолжительность                        : 1 ч. 34 м.
Вид битрейта                             : Постоянный
Битрейт                                  : 384 Кбит/сек
Каналы                                   : 6 каналов
Расположение каналов                     : Front: L C R, Side: L R, LFE
Частота                                  : 48,0 КГц
Частота кадров                           : 31,250 кадров/сек (1536 spf)
Метод сжатия                             : С потерями
Размер потока                            : 260 Мбайт (4%)
Заголовок                                : MVO | HDTV | ВидеоСервис
Язык                                     : Russian
Default                                  : Да
Forced                                   : Нет
Аудио #2
Идентификатор                            : 3
Формат                                   : DTS
Формат/Информация                        : Digital Theater Systems
Режим                                    : 16
Параметр Endianness формата              : Big
Идентификатор кодека                     : A_DTS
Продолжительность                        : 1 ч. 34 м.
Вид битрейта                             : Постоянный
Битрейт                                  : 768 Кбит/сек
Каналы                                   : 6 каналов
Расположение каналов                     : Front: L C R, Side: L R, LFE
Частота                                  : 48,0 КГц
Частота кадров                           : 93,750 кадра/сек (512 spf)
Битовая глубина                          : 24 бит
Метод сжатия                             : С потерями
Размер потока                            : 520 Мбайт (7%)
Заголовок                                : MVO | DVD | Супербит
Язык                                     : Russian
Default                                  : Нет
Forced                                   : Нет
Аудио #3
Идентификатор                            : 4
Формат                                   : AC-3
Формат/Информация                        : Audio Coding 3
Расширение режима                        : CM (complete main)
Параметр Endianness формата              : Big
Идентификатор кодека                     : A_AC3
Продолжительность                        : 1 ч. 34 м.
Вид битрейта                             : Постоянный
Битрейт                                  : 192 Кбит/сек
Каналы                                   : 2 канала
Расположение каналов                     : Front: L R
Частота                                  : 48,0 КГц
Частота кадров                           : 31,250 кадров/сек (1536 spf)
Метод сжатия                             : С потерями
Размер потока                            : 129 Мбайт (2%)
Заголовок                                : AVO | Евгений Гранкин
Язык                                     : Russian
Default                                  : Нет
Forced                                   : Нет
Аудио #4
Идентификатор                            : 5
Формат                                   : AC-3
Формат/Информация                        : Audio Coding 3
Расширение режима                        : CM (complete main)
Параметр Endianness формата              : Big
Идентификатор кодека                     : A_AC3
Продолжительность                        : 1 ч. 34 м.
Вид битрейта                             : Постоянный
Битрейт                                  : 448 Кбит/сек
Каналы                                   : 6 каналов
Расположение каналов                     : Front: L C R, Side: L R, LFE
Частота                                  : 48,0 КГц
Частота кадров                           : 31,250 кадров/сек (1536 spf)
Метод сжатия                             : С потерями
Размер потока                            : 303 Мбайт (4%)
Заголовок                                : Original | DVD
Язык                                     : English
Default                                  : Нет
Forced                                   : Нет
Текст #1
Идентификатор                            : 6
Формат                                   : UTF-8
Идентификатор кодека                     : S_TEXT/UTF8
Идентификатор кодека/Информация          : UTF-8 Plain Text
Продолжительность                        : 1 ч. 28 м.
Битрейт                                  : 112 бит/сек
Count of elements                        : 1328
Размер потока                            : 72,7 Кбайт (0%)
Заголовок                                : SDH
Язык                                     : Russian
Default                                  : Нет
Forced                                   : Нет
Текст #2
Идентификатор                            : 7
Формат                                   : UTF-8
Идентификатор кодека                     : S_TEXT/UTF8
Идентификатор кодека/Информация          : UTF-8 Plain Text
Продолжительность                        : 1 ч. 27 м.
Битрейт                                  : 71 бит/сек
Count of elements                        : 1253
Размер потока                            : 46,1 Кбайт (0%)
Заголовок                                : Original | DVD
Язык                                     : English
Default                                  : Нет
Forced                                   : Нет
Меню
00:00:00.000                             : en:Chapter 1
00:02:20.120                             : en:Chapter 2
00:05:11.880                             : en:Chapter 3
00:08:49.000                             : en:Chapter 4
00:14:11.880                             : en:Chapter 5
00:16:39.120                             : en:Chapter 6
00:19:38.080                             : en:Chapter 7
00:24:02.320                             : en:Chapter 8
00:26:43.400                             : en:Chapter 9
00:28:40.320                             : en:Chapter 10
00:32:01.320                             : en:Chapter 11
00:34:57.200                             : en:Chapter 12
00:36:29.080                             : en:Chapter 13
00:39:58.080                             : en:Chapter 14
00:42:06.160                             : en:Chapter 15
00:47:01.040                             : en:Chapter 16
00:50:23.800                             : en:Chapter 17
00:52:56.640                             : en:Chapter 18
00:54:27.640                             : en:Chapter 19
00:57:49.880                             : en:Chapter 20
01:02:06.120                             : en:Chapter 21
01:04:54.640                             : en:Chapter 22
01:08:09.960                             : en:Chapter 23
01:11:22.760                             : en:Chapter 24
01:15:21.120                             : en:Chapter 25
01:21:26.000                             : en:Chapter 26
01:26:10.560                             : en:Chapter 27
01:28:50.000                             : en:Chapter 28
01:34:42.720                             : en:Chapter 29

_________________
Показать сообщения:    

Текущее время: Сегодня 19:53

Часовой пояс: GMT



Вы не можете начинать темы
Вы не можете отвечать на сообщения
Вы не можете редактировать свои сообщения
Вы не можете удалять свои сообщения
Вы не можете голосовать в опросах
Вы не можете прикреплять файлы к сообщениям
Вы не можете скачивать файлы