Важное объявление!
У Нас Все раздачи мультитрекерные, при нуле пиров в релизах, можете смело вставать на закачку!
 
Автор Сообщение

HUNTER

Стаж:
4 года 4 месяца
Сообщений:
56755

Репутация: 101

[+] [-]
Вне форума [Профиль] [ЛС]

Думай, как мужчина 2 / Think Like a Man Too
Страна: США
Студия: Screen Gems, Will Packer Productions
Жанр: комедия
Год выпуска: 2014
Продолжительность: 01:45:50
Перевод: Профессиональный (многоголосый закадровый)
Cубтитры: английские(full,SDH)
Оригинальная аудиодорожка: английский
Режиссер: Тим Стори / Tim Story
В ролях: Адам Броди, Майкл Или, Джерри Феррара, Миган Гуд, Кевин Харт, Реджина Холл, Деннис Хейсбёрт, Тараджи П. Хенсон, Терренс Дженкинс, Дженифер Льюис, Романи Малко
Описание: Пары готовятся к свадьбе в Лас-Вегасе. Они планируют романтический уик-энд, но все идет наперекосяк. Различные злоключения приводят к компрометирующим ситуациям, которые ставят большое событие под угрозу срыва.

Тип релиза: BDRip 720p[VietHD]
Контейнер: MKV
Видео: AVC, 1280x534, 4718kbps, 23.976 fps
Аудио 1: Russian: 48 kHz, AC3, 2/0 (L,R) ch, ~192.00 kbps avg|MVO|
Аудио 2: English: 48 kHz, AC3, 3/2 (L,C,R,l,r) + LFE ch, ~640.00 kbps |Original|
Чаптеры:есть

MediaInfo

General
Unique ID : 218850747729675682964545374192724760616 (0xA4A51EEF65B1431CB7A5F5F2A8D65828)
Complete name : D:\Think.Like.A.Man.Too.2014.720p.BluRay.DD5.1.x264-Talian-.mkv
Format : Matroska
Format version : Version 2
File size : 4.24 GiB
Duration : 1h 45mn
Overall bit rate : 5 742 Kbps
Movie name : -Talian-
Encoded date : UTC 2014-09-17 15:25:36
Writing application : mkvmerge v5.7.0 ('The Whirlwind') built on Jul 8 2012 20:08:51
Writing library : libebml v1.2.3 + libmatroska v1.3.0
Video
ID : 1
Format : AVC
Format/Info : Advanced Video Codec
Format profile : High@L4.1
Format settings, CABAC : Yes
Format settings, ReFrames : 12 frames
Codec ID : V_MPEG4/ISO/AVC
Duration : 1h 45mn
Bit rate : 4 796 Kbps
Width : 1 280 pixels
Height : 534 pixels
Display aspect ratio : 2.40:1
Frame rate : 23.976 fps
Color space : YUV
Chroma subsampling : 4:2:0
Bit depth : 8 bits
Scan type : Progressive
Bits/(Pixel*Frame) : 0.293
Stream size : 3.55 GiB (84%)
Title : VietHD
Writing library : x264 core 142 r2453kMod ea0ca51
Encoding settings : cabac=1 / ref=12 / deblock=1:-3:-3 / analyse=0x3:0x133 / me=umh / subme=10 / psy=1 / fade_compensate=0.00 / psy_rd=1.00:0.00 / mixed_ref=1 / me_range=24 / chroma_me=1 / trellis=2 / 8x8dct=1 / cqm=0 / deadzone=21,11 / fast_pskip=1 / chroma_qp_offset=-2 / threads=12 / lookahead_threads=2 / sliced_threads=0 / nr=0 / decimate=1 / interlaced=0 / bluray_compat=0 / constrained_intra=0 / fgo=0 / bframes=9 / b_pyramid=2 / b_adapt=2 / b_bias=0 / direct=3 / weightb=1 / open_gop=0 / weightp=2 / keyint=250 / keyint_min=23 / scenecut=40 / intra_refresh=0 / rc=crf / mbtree=0 / crf=16.3000 / qcomp=0.65 / qpmin=0 / qpmax=69 / qpstep=4 / ip_ratio=1.30 / pb_ratio=1.20 / aq=3:0.85
Language : English
Default : Yes
Forced : No
Matrix coefficients : BT.709-5, BT.1361, IEC 61966-2-4 709, SMPTE RP177
Audio #1
ID : 2
Format : AC-3
Format/Info : Audio Coding 3
Mode extension : CM (complete main)
Format settings, Endianness : Big
Codec ID : A_AC3
Duration : 1h 45mn
Bit rate mode : Constant
Bit rate : 192 Kbps
Channel(s) : 2 channels
Channel positions : Front: L R
Sampling rate : 48.0 KHz
Bit depth : 16 bits
Compression mode : Lossy
Stream size : 145 MiB (3%)
Title : MVO
Language : Russian
Default : Yes
Forced : No
Audio #2
ID : 3
Format : AC-3
Format/Info : Audio Coding 3
Mode extension : CM (complete main)
Format settings, Endianness : Big
Codec ID : A_AC3
Duration : 1h 45mn
Bit rate mode : Constant
Bit rate : 640 Kbps
Channel(s) : 6 channels
Channel positions : Front: L C R, Side: L R, LFE
Sampling rate : 48.0 KHz
Bit depth : 16 bits
Compression mode : Lossy
Stream size : 484 MiB (11%)
Title : Original
Language : English
Default : No
Forced : No
Text #1
ID : 4
Format : UTF-8
Codec ID : S_TEXT/UTF8
Codec ID/Info : UTF-8 Plain Text
Title : Sub-full
Language : English
Default : No
Forced : No
Text #2
ID : 5
Format : UTF-8
Codec ID : S_TEXT/UTF8
Codec ID/Info : UTF-8 Plain Text
Title : Sub-SDH
Language : English
Default : No
Forced : No
Menu
00:00:00.000 : en:00:00:00.000
00:06:31.141 : en:00:06:31.141
00:12:34.379 : en:00:12:34.379
00:17:02.605 : en:00:17:02.605
00:22:01.320 : en:00:22:01.320
00:29:17.798 : en:00:29:17.798
00:35:39.137 : en:00:35:39.137
00:43:35.696 : en:00:43:35.696
00:50:36.909 : en:00:50:36.909
00:55:17.606 : en:00:55:17.606
01:03:33.476 : en:01:03:33.476
01:12:15.248 : en:01:12:15.248
01:18:07.099 : en:01:18:07.099
01:26:54.084 : en:01:26:54.084
01:32:40.346 : en:01:32:40.346
01:38:34.325 : en:01:38:34.325

Скриншоты

Source vs Encode



_________________
Показать сообщения:    

Текущее время: Сегодня 08:54

Часовой пояс: GMT



Вы не можете начинать темы
Вы не можете отвечать на сообщения
Вы не можете редактировать свои сообщения
Вы не можете удалять свои сообщения
Вы не можете голосовать в опросах
Вы не можете прикреплять файлы к сообщениям
Вы не можете скачивать файлы