Важное объявление!
У Нас Все раздачи мультитрекерные, при нуле пиров в релизах, можете смело вставать на закачку!
 
Автор Сообщение

HUNTER

Стаж:
4 года 4 месяца
Сообщений:
56790

Репутация: 101

[+] [-]
Вне форума [Профиль] [ЛС]

Дубровский
Жанр: Драма, экранизация
Год выпуска: 2014
Продолжительность: 02:05:15
Режиссёр: Александр Вартанов, Кирилл Михановский
В ролях: Данила Козловский, Клавдия Коршунова, Юрий Цурило, Александр Мезенцев, Игорь Гордин, Дмитрий Поднозов, Елена Дудина, Евгений Вакунов, Артем Кобзев, Любовь Сергеева
Описание: Весьма вольная интерпретация одноимённого романа А.С. Пушкина, на современный лад и манер...
Действие фильма разворачивается в наше время.
Владимир Дубровский - успешный столичный юрист и завсегдатай модных клубов, Маша Троекурова - выпускница английского колледжа и нежная дочь… Хозяева собственных судеб, они едва ли похожи на героев Пушкина. Но внезапная ссора их отцов решительно меняет жизнь Владимира и Маши - они погружаются в реальность, где действуют совсем другие законы…

Доп. информация: Меню анимированное озвученное
Доп. материалы: Киножурнал, анонсы, видеоклип
Качество видео: DVD9
Формат видео: DVD Video
Видео: MPEG2, PAL, 720x576 (16:9), 25 кадр/с, VBR, 6959 Кбит/с
Аудио: Русский, Dolby AC3, 48000 Гц, 448 Кбит/с, 6 каналов (5.1)
Субтитры: Английские

DVDInfo

Title: Dubrovskiy.2014.O.DVD9.New-Team
Size: 7.46 Gb ( 7 820 650,00 KBytes ) - DVD-9
Enabled regions: 1, 2, 3, 4, 5, 6, 7, 8
VTS_01 :
Play Length: 00:00:15
Video: PAL 4:3 (720x576) VBR
Audio:
Not specified (Dolby AC3, 2 ch)
VTS_02 :
Play Length: 00:00:08
Video: PAL 16:9 (720x576) VBR, Auto Letterboxed
Audio:
Not specified (Dolby AC3, 2 ch)
VTS_03 :
Play Length: 00:00:01
Video: PAL 16:9 (720x576) VBR, Auto Letterboxed
Audio:
Russian (Dolby AC3, 2 ch)
Subtitles:
Russian
English
VTS_04 :
Play Length: 02:05:15
Video: PAL 16:9 (720x576) VBR, Auto Letterboxed
Audio:
Russian, AC3, 3/2 (L,C,R,SL,SR)+LFE ch, 448 kbps, Delay 0 mSec
Subtitles:
Russian
English
VTS_05 :
Play Length: 00:00:01
Video: PAL 16:9 (720x576) VBR, Auto Letterboxed
Audio:
Russian (Dolby AC3, 2 ch)
Subtitles:
Russian
English
VTS_06 :
Play Length: 00:02:48
Video: PAL 16:9 (720x576) VBR, Auto Letterboxed
Audio:
Russian (Dolby AC3, 6 ch)
VTS_07 :
Play Length: 00:01:20
Video: PAL 16:9 (720x576) VBR, Auto Letterboxed
Audio:
Russian (Dolby AC3, 2 ch)
VTS_08 :
Play Length: 00:02:46
Video: PAL 16:9 (720x576) VBR, Auto Letterboxed
Audio:
Russian (Dolby AC3, 2 ch)
VTS_09 :
Play Length: 00:02:19
Video: PAL 16:9 (720x576) VBR, Auto Letterboxed
Audio:
Russian (Dolby AC3, 2 ch)
VTS_10 :
Play Length: 00:01:36
Video: PAL 16:9 (720x576) VBR, Auto Letterboxed
Audio:
Russian (Dolby AC3, 2 ch)
VTS_11 :
Play Length: 00:03:50
Video: PAL 16:9 (720x576) VBR, Auto Letterboxed
Audio:
Russian (Dolby AC3, 2 ch)

MediaInfo

Общее
Полное имя : VTS_04_1.VOB
Формат : MPEG-PS
Размер файла : 1024 Мбайт
Продолжительность : 18 м.
Режим общего битрейта : Переменный
Общий поток : 7558 Кбит/сек
Видео
Идентификатор : 224 (0xE0)
Формат : MPEG Video
Версия формата : Version 2
Профиль формата : Main@Main
Параметр BVOP формата : Да
Параметр матрицы формата : По умолчанию
Параметр GOP формата : M=3, N=12
Продолжительность : 18 м.
Вид битрейта : Переменный
Битрейт : 6959 Кбит/сек
Максимальный битрейт : 7800 Кбит/сек
Ширина : 720 пикселей
Высота : 576 пикселей
Соотношение сторон : 16:9
Частота кадров : 25,000 кадров/сек
Стандарт вещания : PAL
Цветовое пространство : YUV
Субдискретизация насыщенности : 4:2:0
Битовая глубина : 8 бит
Тип развёртки : Прогрессивная
Метод сжатия : С потерями
Бит/(Пиксели*Кадры) : 0.671
Временной код первого кадра : 00:00:00:00
Оригинал временного кода : Group of pictures header
Размер потока : 943 Мбайт (92%)
Аудио
Идентификатор : 189 (0xBD)-128 (0x80)
Формат : AC-3
Формат/Информация : Audio Coding 3
Расширение режима : CM (complete main)
Параметр Endianness формата : Big
Режим смешивания : DVD-Video
Продолжительность : 18 м.
Вид битрейта : Постоянный
Битрейт : 448 Кбит/сек
Каналы : 6 каналов
Расположение каналов : Front: L C R, Side: L R, LFE
Частота : 48,0 КГц
Битовая глубина : 16 бит
Метод сжатия : С потерями
Размер потока : 60,7 Мбайт (6%)
Текст #1
Идентификатор : 189 (0xBD)-34 (0x22)
Формат : RLE
Формат/Информация : Run-length encoding
Режим смешивания : DVD-Video
Продолжительность : 18 м.
Задержка видео : 7 с. 80 мс.
Текст #2
Идентификатор : 189 (0xBD)-35 (0x23)
Формат : RLE
Формат/Информация : Run-length encoding
Режим смешивания : DVD-Video
Продолжительность : 18 м.
Задержка видео : 7 с. 80 мс.
Меню

Скриншоты меню

Скриншоты


_________________
Показать сообщения:    

Текущее время: Сегодня 14:24

Часовой пояс: GMT



Вы не можете начинать темы
Вы не можете отвечать на сообщения
Вы не можете редактировать свои сообщения
Вы не можете удалять свои сообщения
Вы не можете голосовать в опросах
Вы не можете прикреплять файлы к сообщениям
Вы не можете скачивать файлы