Важное объявление!
У Нас Все раздачи мультитрекерные, при нуле пиров в релизах, можете смело вставать на закачку!
 
Автор Сообщение

HUNTER

Стаж:
4 года 4 месяца
Сообщений:
56829

Репутация: 101

[+] [-]
Вне форума [Профиль] [ЛС]

Дублеры / The Replacements
Страна: США
Студия: Warner Bros. Pictures Co. и др.
Жанр: комедия, спорт
Год выпуска: 2000
Продолжительность: 01:58:22
Перевод: Профессиональный (дублированный) R5
Перевод 2: Профессиональный (многоголосый закадровый) ТК "Россия-1"
Cубтитры: русские, английские
Оригинальная аудиодорожка: английский
Режиссер: Ховард Дойч / Howard Deutch
В ролях: Киану Ривз, Джин Хэкмен, Брук Лэнгтон, Рис Иванс, Орландо Джонс, Фэйзон Лав, Джон Фавро, Майкл Талиферро, Эйс Йонамайн, Трой Уинбуш
Описание: Еще вчера они были простыми работягами. Сейчас все изменилось: настал день их славы, когда, замещая бастующих профессионалов, они стали Дублерами. Невзрачные простаки превращаются в суперзвезд футбола! Шэйну Фалько, профессионалу американского футбола, пришлось возглавить команду недотеп, собранную ветераном спорта Джимми Макгинти. Поддерживать боевой дух Дублеров собирается очаровательная Аннабель Фаррел и коллектив бывших стриптизерш. «Слава останется навечно. Девчонки будут сходить с ума», — говорит Фалько своим игрокам. Его план игры рассчитан безукоризненно. Их сила — в их непредсказуемости…
Sample
Тип релиза: BDRip 720p - VietHD
Контейнер: MKV
Видео: MPEG4 AVC Video, H264, 16:9, 1280x720, 23.976 fps, 6518 Kbps
Аудио: Russian (AC3, 6 ch, 384 kbps, 16 bits, 48.0 KHz) - дубляж
Аудио 2: Russian (AC3, 2 ch, 192 kbps, 16 bits, 48.0 KHz) - ТК "Россия-1"
Аудио 3: English (DTS, 6 ch, 1509 kbps, 24 bits, 48.0 KHz) - оригинал
Аудио 4: English (AC3, 2 ch, 192 kbps, 16 bits, 48.0 KHz) - комментарии
Формат субтитров: softsub (SRT)

MediaInfo

General
Unique ID : 206674135305045063503024139942687562565 (0x9B7BFD97666E7FB2A7D675E788A65B45)
Complete name : L:\The Replacements\Дублеры 2000 BDRip 720p-VietHD.mkv
Format : Matroska
Format version : Version 4 / Version 2
File size : 7.42 GiB
Duration : 1h 58mn
Overall bit rate : 8 973 Kbps
Encoded date : UTC 2015-02-05 10:09:38
Writing application : mkvmerge v6.1.0 ('Old Devil') built on Mar 2 2013 14:32:37
Writing library : libebml v1.3.0 + libmatroska v1.4.0
Video
ID : 1
Format : AVC
Format/Info : Advanced Video Codec
Format profile : High@L4.1
Format settings, CABAC : Yes
Format settings, ReFrames : 9 frames
Codec ID : V_MPEG4/ISO/AVC
Duration : 1h 58mn
Bit rate : 6 518 Kbps
Width : 1 280 pixels
Height : 720 pixels
Display aspect ratio : 16:9
Frame rate mode : Constant
Frame rate : 23.976 fps
Color space : YUV
Chroma subsampling : 4:2:0
Bit depth : 8 bits
Scan type : Progressive
Bits/(Pixel*Frame) : 0.295
Stream size : 5.39 GiB (73%)
Writing library : x264 core 142 r2491 24e4fed
Encoding settings : cabac=1 / ref=9 / deblock=1:-3:-3 / analyse=0x3:0 / me=umh / subme=10 / psy=1 / psy_rd=0.70:0.00 / mixed_ref=1 / me_range=32 / chroma_me=1 / trellis=2 / 8x8dct=1 / cqm=0 / deadzone=21,11 / fast_pskip=0 / chroma_qp_offset=-2 / threads=16 / lookahead_threads=2 / sliced_threads=0 / nr=0 / decimate=0 / interlaced=0 / bluray_compat=0 / constrained_intra=0 / bframes=9 / b_pyramid=2 / b_adapt=2 / b_bias=0 / direct=3 / weightb=0 / open_gop=0 / weightp=2 / keyint=250 / keyint_min=23 / scenecut=40 / intra_refresh=0 / rc=crf / mbtree=0 / crf=18.3 / qcomp=0.60 / qpmin=0 / qpmax=69 / qpstep=4 / ip_ratio=1.40 / pb_ratio=1.30 / aq=1:1.10
Language : English
Default : Yes
Forced : No
Matrix coefficients : BT.709
Audio #1
ID : 2
Format : AC-3
Format/Info : Audio Coding 3
Mode extension : CM (complete main)
Format settings, Endianness : Big
Codec ID : A_AC3
Duration : 1h 58mn
Bit rate mode : Constant
Bit rate : 384 Kbps
Channel count : 6 channels
Channel positions : Front: L C R, Side: L R, LFE
Sampling rate : 48.0 KHz
Bit depth : 16 bits
Compression mode : Lossy
Stream size : 325 MiB (4%)
Title : Dub
Language : Russian
Default : Yes
Forced : Yes
Audio #2
ID : 3
Format : AC-3
Format/Info : Audio Coding 3
Mode extension : CM (complete main)
Format settings, Endianness : Big
Codec ID : A_AC3
Duration : 1h 58mn
Bit rate mode : Constant
Bit rate : 192 Kbps
Channel count : 2 channels
Channel positions : Front: L R
Sampling rate : 48.0 KHz
Bit depth : 16 bits
Compression mode : Lossy
Stream size : 163 MiB (2%)
Title : Mvo ТК "Россия-1"
Language : Russian
Default : No
Forced : No
Audio #3
ID : 4
Format : DTS
Format/Info : Digital Theater Systems
Mode : 16
Format settings, Endianness : Big
Codec ID : A_DTS
Duration : 1h 58mn
Bit rate mode : Constant
Bit rate : 1 509 Kbps
Channel count : 6 channels
Channel positions : Front: L C R, Side: L R, LFE
Sampling rate : 48.0 KHz
Bit depth : 24 bits
Compression mode : Lossy
Stream size : 1.25 GiB (17%)
Language : English
Default : No
Forced : No
Audio #4
ID : 5
Format : AC-3
Format/Info : Audio Coding 3
Mode extension : CM (complete main)
Format settings, Endianness : Big
Codec ID : A_AC3
Duration : 1h 58mn
Bit rate mode : Constant
Bit rate : 192 Kbps
Channel count : 2 channels
Channel positions : Front: L R
Sampling rate : 48.0 KHz
Bit depth : 16 bits
Compression mode : Lossy
Stream size : 163 MiB (2%)
Title : комментарии
Language : English
Default : No
Forced : No
Text #1
ID : 6
Format : UTF-8
Codec ID : S_TEXT/UTF8
Codec ID/Info : UTF-8 Plain Text
Language : Russian
Default : No
Forced : No
Text #2
ID : 7
Format : UTF-8
Codec ID : S_TEXT/UTF8
Codec ID/Info : UTF-8 Plain Text
Title : Eng
Language : English
Default : No
Forced : No
Menu
00:00:00.000 : en:00:00:00.000
00:11:13.089 : en:00:11:13.089
00:20:38.988 : en:00:20:38.988
00:30:14.521 : en:00:30:14.521
00:40:35.642 : en:00:40:35.642
00:51:45.477 : en:00:51:45.477
01:00:31.002 : en:01:00:31.002
01:12:41.482 : en:01:12:41.482
01:20:54.850 : en:01:20:54.850
01:29:58.143 : en:01:29:58.143
01:36:56.811 : en:01:36:56.811
01:46:02.982 : en:01:46:02.982
01:53:11.952 : en:01:53:11.952

_________________
Показать сообщения:    

Текущее время: Сегодня 09:46

Часовой пояс: GMT



Вы не можете начинать темы
Вы не можете отвечать на сообщения
Вы не можете редактировать свои сообщения
Вы не можете удалять свои сообщения
Вы не можете голосовать в опросах
Вы не можете прикреплять файлы к сообщениям
Вы не можете скачивать файлы