Важное объявление!
У Нас Все раздачи мультитрекерные, при нуле пиров в релизах, можете смело вставать на закачку!
 
Автор Сообщение

HUNTER

Стаж:
4 года 4 месяца
Сообщений:
56790

Репутация: 101

[+] [-]
Вне форума [Профиль] [ЛС]

Друзья друзей
Страна: Россия
Жанр: Комедия, приключения
Год выпуска: 2013
Продолжительность: 01:30:27
Перевод: Не требуется
Cубтитры: нет
Оригинальная аудиодорожка: нет-Режиссер: Артём Аксененко, Араик Оганесян-В ролях: Нюша Шурочкина, Гарик Харламов, Юрий Стоянов, Николай Наумов, Александр Ильин мл., Тимур Батрутдинов, Александр Молочников, Андрей Гайдулян, Олег Верещагин, Александр Булатов-Описание: В канун Нового года пересекаются истории промоутера, впервые оставшегося дома с пятилетним ребенком, трех музыкантов из филармонии, решившихся на ограбление сурового бизнесмена, на домашнюю вечеринку к которому их отправил тот самый промоутер, и бедного студента, пригласившего на первое свидание в дорогой ресторан дочку того самого сурового бизнесмена. В результате, каждый из героев попадет в нелепые, пикантные, опасные, но все равно очень смешные ситуации, выбраться из которых им, конечно, помогут, друзья…-Релиз: Релиз группа: -Качество видео: BDRip
Формат видео: MKV
Видео: MPEG-4 AVC Video 4.5 Mbps 1280x692 / 24 fps / 16:9 / High Profile 4.1
Аудио: Russian 48 kHz, AC3 Dolby Digital, 3/2 (L,C,R,l,r) + LFE ch, ~ 640kbps-Сэмпл: http://sendfile.su/937389-

MediaInfo

Код:
Format                                   : Matroska
Format version                           : Version 4 / Version 2
File size                                : 3.25 GiB
Duration                                 : 1h 30mn
Overall bit rate                         : 5 137 Kbps
Movie name                               : cmegroup
Encoded date                             : UTC 2014-02-08 14:33:23
Writing application                      : mkvmerge v6.7.0 ('Back to the Ground') 32bit built on Jan  8 2014 15:03:17
Writing library                          : libebml v1.3.0 + libmatroska v1.4.1
Video
ID                                       : 1
Format                                   : AVC
Format/Info                              : Advanced Video Codec
Format profile                           : High@L4.1
Format settings, CABAC                   : Yes
Format settings, ReFrames                : 9 frames
Codec ID                                 : V_MPEG4/ISO/AVC
Duration                                 : 1h 30mn
Bit rate                                 : 4 500 Kbps
Width                                    : 1 280 pixels
Height                                   : 692 pixels
Display aspect ratio                     : 1.850
Frame rate                               : 24.000 fps
Color space                              : YUV
Chroma subsampling                       : 4:2:0
Bit depth                                : 8 bits
Scan type                                : Progressive
Bits/(Pixel*Frame)                       : 0.212
Stream size                              : 2.78 GiB (86%)
Writing library                          : x264 core 138 r2358 9e941d1
Encoding settings                        : cabac=1 / ref=9 / deblock=1:-3:-3 / analyse=0x3:0x113 / me=umh / subme=11 / psy=1 / psy_rd=1.00:0.00 / mixed_ref=1 / me_range=32 / chroma_me=1 / trellis=2 / 8x8dct=1 / cqm=0 / deadzone=21,11 / fast_pskip=1 / chroma_qp_offset=-2 / threads=12 / lookahead_threads=1 / sliced_threads=0 / nr=0 / decimate=1 / interlaced=0 / bluray_compat=0 / constrained_intra=0 / bframes=5 / b_pyramid=2 / b_adapt=1 / b_bias=0 / direct=2 / weightb=1 / open_gop=0 / weightp=2 / keyint=240 / keyint_min=24 / scenecut=40 / intra_refresh=0 / rc_lookahead=40 / rc=2pass / mbtree=1 / bitrate=4500 / ratetol=1.0 / qcomp=0.60 / qpmin=10 / qpmax=51 / qpstep=4 / cplxblur=20.0 / qblur=0.5 / vbv_maxrate=62500 / vbv_bufsize=78125 / nal_hrd=none / ip_ratio=1.40 / aq=1:1.00
Language                                 : English
Default                                  : Yes
Forced                                   : No
Audio
ID                                       : 2
Format                                   : AC-3
Format/Info                              : Audio Coding 3
Mode extension                           : CM (complete main)
Codec ID                                 : A_AC3
Duration                                 : 1h 30mn
Bit rate mode                            : Constant
Bit rate                                 : 640 Kbps
Channel(s)                               : 6 channels
Channel positions                        : Front: L C R, Side: L R, LFE
Sampling rate                            : 48.0 KHz
Bit depth                                : 16 bits
Compression mode                         : Lossy
Stream size                              : 414 MiB (12%)
Default                                  : Yes
Forced                                   : No
Menu
00:00:00.000                             : en:00:00:00.000
00:12:49.292                             : en:00:12:49.292
00:23:00.417                             : en:00:23:00.417
00:35:00.958                             : en:00:35:00.958
00:44:41.708                             : en:00:44:41.708
00:58:44.750                             : en:00:58:44.750
01:09:09.583                             : en:01:09:09.583
01:21:12.750                             : en:01:21:12.750

Скриншоты


_________________
Показать сообщения:    

Текущее время: Сегодня 09:11

Часовой пояс: GMT



Вы не можете начинать темы
Вы не можете отвечать на сообщения
Вы не можете редактировать свои сообщения
Вы не можете удалять свои сообщения
Вы не можете голосовать в опросах
Вы не можете прикреплять файлы к сообщениям
Вы не можете скачивать файлы