Важное объявление!
У Нас Все раздачи мультитрекерные, при нуле пиров в релизах, можете смело вставать на закачку!
 
Автор Сообщение

HUNTER

Стаж:
4 года 4 месяца
Сообщений:
56798

Репутация: 101

[+] [-]
Вне форума [Профиль] [ЛС]

Дружинники / The Watch
Страна: США
Жанр: фантастика, комедия
Год выпуска: 2012
Продолжительность: 01:33:41
Перевод: Профессиональный (многоголосый закадровый)
Cубтитры: нет
Оригинальная аудиодорожка: нет
Режиссер: Акива Шаффер / Akiva Schaffer
В ролях: Бен Стиллер, Винс Вон, Джона Хилл, Ричард Айоаде, Розмари ДеУитт, Уилл Форте, Эрин Мориарти, Николас Браун, Р. Ли Эрми, Билли Крудап.
Описание: Несколько соседей из довольно тихого маленького местечка, решили организовать бригаду дружинников, для поддержания правопорядка в родном районе и патрулирования местности. На самом деле мужчины просто придумали для себя идеальный способ, хоть изредка сбегать из дома, чтобы не сидеть в кругу семьи, а проводить время в веселых кутежах в своей компании. Долгое время все шло просто отлично, жены думали, что их мужья отличные ребята и заботятся о их безопасности, а те вселились на полную катушку. Однако совершенно случайно дозорные узнали, что готовится коварный заговор, основная цель которого уничтожение мира.
Доп. информация: Запись с канала Первый HD. HDTV имеет иное наполнение кадра чем BD http://screenshotcomparison.com/comparison/143041
Сэмпл: http://multi-up.com/1068126
Тип релиза: HDTV 1080i
Контейнер: TS
Видео: AVC, 1920x1080 (16:9), 25.000 fps, 11.4 Mbps (0.219 bit/pixel)
Аудио: MP2, 48.0 KHz, 2 ch, 192 Kbps, CBR (Russian)

MediaInfo

бщее
Идентификатор : 3 (0x3)
Полное имя : K:\Дружинники.ts
Формат : MPEG-TS
Размер файла : 7,95 Гбайт
Продолжительность : 1 ч. 33 м.
Режим общего битрейта : Переменный
Общий поток : 12,1 Мбит/сек
Видео
Идентификатор : 2141 (0x85D)
Идентификатор меню : 21004 (0x520C)
Формат : AVC
Формат/Информация : Advanced Video Codec
Профиль формата : Main@L4
Параметр CABAC формата : Да
Параметр ReFrames формата : 3 кадра
Параметр GOP формата : M=4, N=28
Идентификатор кодека : 27
Продолжительность : 1 ч. 33 м.
Битрейт : 11,4 Мбит/сек
Ширина : 1920 пикселей
Высота : 1080 пикселей
Соотношение сторон : 16:9
Частота кадров : 25,000 кадров/сек
Стандарт вещания : Component
Цветовое пространство : YUV
Субдискретизация насыщенности : 4:2:0
Битовая глубина : 8 бит
Тип развёртки : Чересстрочная
Порядок развёртки : Верхнее поле первое
Бит/(Пиксели*Кадры) : 0.219
Размер потока : 7,43 Гбайт (93%)
Цветовой диапазон : Limited
Основные цвета : BT.709
Характеристики трансфера : BT.709
Коэффициенты матрицы : BT.709
Аудио
Идентификатор : 2142 (0x85E)
Идентификатор меню : 21004 (0x520C)
Формат : MPEG Audio
Версия формата : Version 1
Профиль формата : Layer 2
Идентификатор кодека : 4
Продолжительность : 1 ч. 33 м.
Вид битрейта : Постоянный
Битрейт : 192 Кбит/сек
Каналы : 2 канала
Частота : 48,0 КГц
Метод сжатия : С потерями
Задержка видео : -16 мс.
Размер потока : 129 Мбайт (2%)
Язык : Russian

Скриншоты


_________________
Показать сообщения:    

Текущее время: Сегодня 04:26

Часовой пояс: GMT



Вы не можете начинать темы
Вы не можете отвечать на сообщения
Вы не можете редактировать свои сообщения
Вы не можете удалять свои сообщения
Вы не можете голосовать в опросах
Вы не можете прикреплять файлы к сообщениям
Вы не можете скачивать файлы