Важное объявление!
У Нас Все раздачи мультитрекерные, при нуле пиров в релизах, можете смело вставать на закачку!
 
Автор Сообщение

HUNTER

Стаж:
4 года 4 месяца
Сообщений:
56722

Репутация: 101

[+] [-]
Вне форума [Профиль] [ЛС]

Другой мир США / Underworld U.S.A.-
Год выпуска: 1961
Страна: США
Жанр: драма, криминал
Продолжительность: 01:38:23
Перевод: Профессиональный (многоголосый закадровый) ТРК «Петербург – 5-й канал»
Оригинальная аудиодорожка: Английская
Cубтитры: Английские-Режиссер: Сэмюэл Фуллер / Samuel Fuller
В ролях: Клифф Робертсон, Долорес Дорн, Беатрис Кэй, Пол Дубов, Роберт Эмхардт, Ларри Гейтс, Ричард Руст, Джералд Милтон, Алан Грюнер, Дэвид Кент-Описание:
Четырнадцатилетний Толли Девлин видит, как четверо неизвестных до смерти избивают его отца.
Спустя двадцать лет он решает отомстить. Но к тому времени эти четверо уже становятся лидерами криминальной группировки, тщательно охраняемые продажными полицейскими…-За дорожку спасибо StudioRAK.
| IMDb | Сэмпл-Качество: WEB-DL 720p (SbR)
Контейнер: MKV
Видео: AVC, 1278x720 (1.78:1), 23.976 fps, 4067 kbps
Аудио 1: Русский AC3, 2.0, 48 kHz, 192 kbps
Аудио 2: Английский AC3, 2.0, 48 kHz, 192 kbps
Аудио 3: Английский AAC, 2.0, 48 kHz, 118 kbps
Формат субтитров: softsub (SRT)
СкриншотыMI
General
Unique ID : 229686630936252033996533060979907670704 (0xACCC09398F822767831B5ECC3EB4B2B0)
Complete name : Underworld.U.S.A.1961.720p.WEB-DL.H.264-SbR.mkv
Format : Matroska
Format version : Version 2
File size : 3.14 GiB
Duration : 1h 38mn
Overall bit rate : 4 573 Kbps
Movie name : Underworld U.S.A. / Другой мир США (1961) – RuTracker
Encoded date : UTC 2014-05-28 19:28:40
Writing application : mkvmerge v6.1.0 ('Old Devil') built on Mar 2 2013 14:32:37
Writing library : libebml v1.3.0 + libmatroska v1.4.0
Attachment : Yes
Video
ID : 1
Format : AVC
Format/Info : Advanced Video Codec
Format profile : High@L3.1
Format settings, CABAC : No
Format settings, ReFrames : 2 frames
Codec ID : V_MPEG4/ISO/AVC
Duration : 1h 38mn
Width : 1 278 pixels
Height : 720 pixels
Display aspect ratio : 16:9
Frame rate mode : Constant
Frame rate : 23.976 fps
Color space : YUV
Chroma subsampling : 4:2:0
Bit depth : 8 bits
Scan type : Progressive
Title : Underworld.U.S.A.1961.720p.WEB-DL.AAC2.0.H.264-SbR
Language : English
Default : Yes
Forced : No
Color primaries : BT.709
Transfer characteristics : BT.709
Matrix coefficients : BT.709
Audio #1
ID : 2
Format : AC-3
Format/Info : Audio Coding 3
Mode extension : CM (complete main)
Format settings, Endianness : Big
Codec ID : A_AC3
Duration : 1h 38mn
Bit rate mode : Constant
Bit rate : 192 Kbps
Channel(s) : 2 channels
Channel positions : Front: L R
Sampling rate : 48.0 KHz
Bit depth : 16 bits
Compression mode : Lossy
Stream size : 135 MiB (4%)
Title : MVO – Петербург 5-й канал
Language : Russian
Default : Yes
Forced : No
Audio #2
ID : 3
Format : AC-3
Format/Info : Audio Coding 3
Mode extension : CM (complete main)
Format settings, Endianness : Big
Codec ID : A_AC3
Duration : 1h 38mn
Bit rate mode : Constant
Bit rate : 192 Kbps
Channel(s) : 2 channels
Channel positions : Front: L R
Sampling rate : 48.0 KHz
Bit depth : 16 bits
Compression mode : Lossy
Stream size : 135 MiB (4%)
Title : Original (DVD)
Language : English
Default : No
Forced : No
Audio #3
ID : 4
Format : AAC
Format/Info : Advanced Audio Codec
Format profile : LC
Codec ID : A_AAC
Duration : 1h 38mn
Channel(s) : 2 channels
Channel positions : Front: L R
Sampling rate : 48.0 KHz
Compression mode : Lossy
Title : Original (iTunes)
Language : English
Default : No
Forced : No
Text #1
ID : 5
Format : UTF-8
Codec ID : S_TEXT/UTF8
Codec ID/Info : UTF-8 Plain Text
Language : English
Default : No
Forced : No
Text #2
ID : 6
Format : UTF-8
Codec ID : S_TEXT/UTF8
Codec ID/Info : UTF-8 Plain Text
Title : SDH
Language : English
Default : No
Forced : No
Menu
00:00:00.000 : en:Chapter 1
00:08:52.000 : en:Chapter 2
00:16:16.000 : en:Chapter 3
00:24:43.000 : en:Chapter 4
00:33:17.000 : en:Chapter 5
00:40:25.000 : en:Chapter 6
00:49:23.000 : en:Chapter 7
00:58:09.000 : en:Chapter 8
01:05:20.000 : en:Chapter 9
01:13:50.000 : en:Chapter 10
01:22:02.000 : en:Chapter 11
01:30:24.000 : en:Chapter 12

_________________
Показать сообщения:    

Текущее время: Сегодня 10:55

Часовой пояс: GMT



Вы не можете начинать темы
Вы не можете отвечать на сообщения
Вы не можете редактировать свои сообщения
Вы не можете удалять свои сообщения
Вы не можете голосовать в опросах
Вы не можете прикреплять файлы к сообщениям
Вы не можете скачивать файлы