Важное объявление!
У Нас Все раздачи мультитрекерные, при нуле пиров в релизах, можете смело вставать на закачку!
 
Автор Сообщение

HUNTER

Стаж:
4 года 4 месяца
Сообщений:
56839

Репутация: 101

[+] [-]
Вне форума [Профиль] [ЛС]

Другой мир 2: Эволюция / Underworld: Evolution [Open Matte]-
Год выпуска: 2006
Выпущено: США
Жанр: фантастика, фэнтези, боевик
Продолжительность: 01:46:22
Перевод: Профессиональный (полное дублирование)
+ Профессиональный (многоголосый, закадровый) Киномания
+ Профессиональный (двухголосый, закадровый) Tycoon
+ Авторский одноголосый В.Королев
+ Авторский одноглосый А.Гаврилов
Оригинальная звуковая дорожка: English
Субтитры: Russian (R5), Russian (Киномания), English-Режиссер: Лен Уайзман / Len Wiseman
В ролях: Кейт Бекинсейл, Скотт Спидман, Тони Каррен, Шэйн Бролли, Дерек Якоби, Билл Найи, Стивен Макинтош, Зита Горог, Брайан Стил, Скотт МакЭлрой, Джон Манн, Майкл Шин, Софи Майлс, Ричард Цетрон, Майк Мукатис, Кристин Даниэль, Кайя Джестал, Аттила Ловаджи, Александр Грант, Моника Гамбург, Лили Мо Шин
О фильме: В зловещем ночном мире, скрытом от взора простых смертных, не утихает беспощадная борьба между двумя кланами властителей мрака – вампирами и оборотнями. Настала пора узнать об истоках вековой вражды, ставшей для вампира-воительницы Селин и Майкла, полуоборотня–получеловека, проклятьем и смыслом существования.
Сражаясь с могущественными врагами из обоих кланов, древними магистрами смерти, они познают кровавую интригу и запретную любовь, чтобы в сумраке ночи раскрыть тайну своего происхождения и своего наследия. Их ждет великая битва, которая покончит с вечным противостоянием – последняя схватка ради окончания всех войн, в которой бессмертные должны понести кару и расплатиться за свои злодеяния…
Релиз:
Источник: Underworld: Evolution (2006) 1080i Blu-Ray Disk Bluebird
Тип релиза: BDRip 1080p
Формат: MKV
Видео: 1920x1080 at 23.976 fps, @L4.1, 2pass, ~16000 kbps avg
Аудио #01: Russian: 48 kHz, DTS, 3/2 (L,C,R,l,r) + LFE ch, ~768.00 kbps avg |Дубляж, BD CEE|
Аудио #02: Russian: 48 kHz, DTS, 3/2 (L,C,R,l,r) + LFE ch, ~1536.00 kbps avg |Многоголосый закадровый, Киномания|
Аудио #03: Russian: 48 kHz, AC3, 3/2 (L,C,R,l,r) + LFE ch, ~448 kbps |Двухголосый закадровый, Tycoon|
Аудио #04: Russian: 48 kHz, DTS, 3/2 (L,C,R,l,r) + LFE ch, ~768.00 kbps avg |Одноголосый закадровый, В. Королёв|
Аудио #05: Russian: 48 kHz, DTS, 3/2 (L,C,R,l,r) + LFE ch, ~1536.00 kbps avg |Одноголосый закадровый, А. Гаврилов|
Аудио #06: English: 48 kHz, DTS, 3/2 (L,C,R,l,r) + LFE ch, ~1536.00 kbps avg
Аудио #07: Ukrainian: 48 kHz, DTS, 3/2 (L,C,R,l,r) + LFE ch, ~768.00 kbps avg |Многоголосый закадровый, ICTV|
Семпл-

Open Matte vs OAR




-

Source vs Encode



mInfo

Полное имя : F:\Underworld.Evolution.2006.1080p.BluRay.5xRus.Ukr.Eng.HDCLUB.mkv
Формат :
Версия формата : Version 4 / Version 2
Размер файла : 17,3 Гбайт
Продолжительность : 1 ч. 46 м.
Общий поток : 23,2 Мбит/сек
Дата кодирования : UTC 2016-04-04 07:50:36
Программа кодирования : mkvmerge v8.3.0 ('Over the Horizon') 64bit
Библиотека кодирования : libebml v1.3.1 + libmatroska v1.4.2
Обложка : Yes
Attachments : cover
Видео
Идентификатор : 1
Формат : AVC
Формат/Информация : Advanced Video Codec
Профиль формата : High@L4.1
Параметр CABAC формата : Да
Параметр ReFrames формата : 4 кадра
Идентификатор кодека : V_MPEG4/ISO/AVC
Продолжительность : 1 ч. 46 м.
: 16,0 Мбит/сек
Ширина : 1920 пикселей
Высота : 1080 пикселей
Соотношение сторон : 16:9
Режим частоты кадров : Постоянный
: 23,976 (24000/1001) кадра/сек
Цветовое пространство :
: 4:2:0
Битовая глубина : 8 бит
Тип развёртки : Прогрессивная
Бит/(Пиксели*Кадры) : 0.322
Размер потока : 11,9 (69%)
Заголовок : ) 1080p BDRip
Библиотека кодирования : core 148 r2665 a01e339
Настройки программы : cabac=1 / ref=4 / deblock=1:-3:-3 / analyse=0x3:0x113 / me=umh / subme=10 / psy=1 / psy_rd=1.00:0.00 / mixed_ref=1 / me_range=64 / chroma_me=1 / trellis=2 / 8x8dct=1 / cqm=0 / deadzone=21,11 / fast_pskip=0 / chroma_qp_offset=-2 / threads=12 / lookahead_threads=3 / sliced_threads=0 / nr=0 / decimate=0 / interlaced=0 / bluray_compat=0 / constrained_intra=0 / bframes=12 / b_pyramid=2 / b_adapt=2 / b_bias=0 / direct=3 / weightb=1 / open_gop=0 / weightp=2 / keyint=240 / keyint_min=23 / scenecut=40 / intra_refresh=0 / rc_lookahead=60 / rc=2pass / mbtree=0 / bitrate=16000 / ratetol=1.0 / qcomp=0.60 / qpmin=0 / qpmax=69 / qpstep=4 / cplxblur=20.0 / qblur=0.5 / vbv_maxrate=50000 / vbv_bufsize=62500 / nal_hrd=none / filler=0 / ip_ratio=1.40 / pb_ratio=1.30 / aq=1:1.00
Язык : English
Default : Да
Forced : Нет
Аудио #1
Идентификатор : 2
Формат : DTS
Формат/Информация :
Режим : 16
Параметр Endianness формата : Big
Идентификатор кодека : A_
Продолжительность : 1 ч. 46 м.
Вид битрейта : Постоянный
Битрейт : 755 Кбит/сек
Каналы : 6 каналов
Расположение каналов : Front: L C R, Side: L R, LFE
Частота : 48,0 КГц
Частота кадров : 93,750 кадра/сек (512 spf)
Битовая глубина : 24 бит
Метод сжатия : С потерями
Размер потока : 574 Мбайт (3%)
Заголовок : [Blu-ray CEE] Dub - DTS 5.1 @ 768 kbps
Язык : Russian
Default : Да
Forced : Нет
Аудио #2
Идентификатор : 3
Формат : DTS
Формат/Информация : Digital Theater Systems
Режим : 16
Параметр Endianness формата : Big
Идентификатор кодека : A_DTS
Продолжительность : 1 ч. 46 м.
Вид битрейта : Постоянный
Битрейт : 1510 Кбит/сек
Каналы : 6 каналов
Расположение каналов : Front: L C R, Side: L R, LFE
Частота : 48,0 КГц
Частота кадров : 93,750 кадра/сек (512 spf)
Битовая глубина : 24 бит
Метод сжатия : С потерями
Размер потока : 1,12 Гбайт (6%)
Заголовок : [Киномания] Mvo - DTS 5.1 @ 1536 kbps
Язык : Russian
Default : Нет
Forced : Нет
Аудио #3
Идентификатор : 4
Формат : AC-3
Формат/Информация : Audio Coding 3
Расширение режима : CM (complete main)
Параметр Endianness формата : Big
Идентификатор кодека : A_AC3
Продолжительность : 1 ч. 46 м.
Вид битрейта : Постоянный
Битрейт : 448 Кбит/сек
Каналы : 6 каналов
Расположение каналов : Front: L C R, Side: L R, LFE
Частота : 48,0 КГц
Частота кадров : 31,250 кадров/сек (1536 spf)
Метод сжатия : С потерями
Размер потока : 341 Мбайт (2%)
Заголовок : [Tycoon] Dvo - AC3 5.1 @ 448 kbps
Язык : Russian
Default : Нет
Forced : Нет
Аудио #4
Идентификатор : 5
Формат : DTS
Формат/Информация : Digital Theater Systems
Режим : 16
Параметр Endianness формата : Big
Идентификатор кодека : A_DTS
Продолжительность : 1 ч. 46 м.
Вид битрейта : Постоянный
Битрейт : 755 Кбит/сек
Каналы : 6 каналов
Расположение каналов : Front: L C R, Side: L R, LFE
Частота : 48,0 КГц
Частота кадров : 93,750 кадра/сек (512 spf)
Битовая глубина : 24 бит
Метод сжатия : С потерями
Размер потока : 574 Мбайт (3%)
Заголовок : [В. Королёв] Avo - DTS 5.1 @ 768 kbps
Язык : Russian
Default : Нет
Forced : Нет
Аудио #5
Идентификатор : 6
Формат : DTS
Формат/Информация : Digital Theater Systems
Режим : 16
Параметр Endianness формата : Big
Идентификатор кодека : A_DTS
Продолжительность : 1 ч. 46 м.
Вид битрейта : Постоянный
Битрейт : 1510 Кбит/сек
Каналы : 6 каналов
Расположение каналов : Front: L C R, Side: L R, LFE
Частота : 48,0 КГц
Частота кадров : 93,750 кадра/сек (512 spf)
Битовая глубина : 24 бит
Метод сжатия : С потерями
Размер потока : 1,12 Гбайт (6%)
Заголовок : [А. Гаврилов] Avo - DTS 5.1 @ 1536 kbps
Язык : Russian
Default : Нет
Forced : Нет
Аудио #6
Идентификатор : 7
Формат : DTS
Формат/Информация : Digital Theater Systems
Режим : 16
Параметр Endianness формата : Big
Идентификатор кодека : A_DTS
Продолжительность : 1 ч. 46 м.
Вид битрейта : Постоянный
Битрейт : 755 Кбит/сек
Каналы : 6 каналов
Расположение каналов : Front: L C R, Side: L R, LFE
Частота : 48,0 КГц
Частота кадров : 93,750 кадра/сек (512 spf)
Битовая глубина : 24 бит
Метод сжатия : С потерями
Размер потока : 574 Мбайт (3%)
Заголовок : [ICTV] Mvo - DTS 5.1 @ 768 kbps
Язык : Ukrainian
Default : Нет
Forced : Нет
Аудио #7
Идентификатор : 8
Формат : DTS
Формат/Информация : Digital Theater Systems
Режим : 16
Параметр Endianness формата : Big
Идентификатор кодека : A_DTS
Продолжительность : 1 ч. 46 м.
Вид битрейта : Постоянный
Битрейт : 1509 Кбит/сек
Каналы : 6 каналов
Расположение каналов : Front: L C R, Side: L R, LFE
Частота : 48,0 КГц
Частота кадров : 93,750 кадра/сек (512 spf)
Битовая глубина : 16 бит
Метод сжатия : С потерями
Размер потока : 1,12 Гбайт (6%)
Заголовок : [Original from BD] DTS 5.1 @ 1536 kbps
Язык : English
Default : Нет
Forced : Нет
Текст #1
Идентификатор : 9
Формат : UTF-8
Идентификатор кодека : S_TEXT/UTF8
Идентификатор кодека/Информация : UTF-8 Plain Text
Продолжительность : 1 ч. 39 м.
Битрейт : 44 бит/сек
Count of elements : 596
Размер потока : 32,2 Кбайт (0%)
Заголовок : Full - R5
Язык : Russian
Default : Нет
Forced : Нет
Текст #2
Идентификатор : 10
Формат : UTF-8
Идентификатор кодека : S_TEXT/UTF8
Идентификатор кодека/Информация : UTF-8 Plain Text
Продолжительность : 1 ч. 39 м.
Битрейт : 39 бит/сек
Count of elements : 563
Размер потока : 28,5 Кбайт (0%)
Заголовок : Full - Киномания
Язык : Russian
Default : Нет
Forced : Нет
Текст #3
Идентификатор : 11
Формат : UTF-8
Идентификатор кодека : S_TEXT/UTF8
Идентификатор кодека/Информация : UTF-8 Plain Text
Продолжительность : 1 ч. 36 м.
Битрейт : 20 бит/сек
Count of elements : 421
Размер потока : 14,5 Кбайт (0%)
Заголовок : Full
Язык : English
Default : Нет
Forced : Нет
Меню
00:00:00.000 : :Start
00:09:46.707 : :The Last Hope
00:12:21.321 : :Respect the Elders
00:15:38.936 : :No Going Back
00:17:18.326 : :Carving a New Course
00:23:12.387 : :Can't Bear the Hunger
00:29:31.601 : :Road Rage Reunion
00:33:48.441 : :A Burning Need
00:38:58.208 : :Leaving No Trace
00:41:18.681 : :Relic of Memory
00:43:32.106 : :The Exile's Snare
00:47:21.335 : :Time for Answers
00:49:12.155 : :Truth and Legend
00:56:44.148 : :Impailing Interrogation
01:00:00.510 : :Father of the War
01:03:09.114 : :Bleeding the Map
01:05:49.150 : ain of Helplessness
01:07:14.902 : ivine Aspiration
01:10:32.265 : :The Future Begins
01:13:43.375 : :The Past Fades Away
01:15:58.216 : :A Forgotton Chamber
01:17:17.255 : :A Submerged Entry
01:20:18.185 : :Brothers Reunited
01:21:26.502 : :"We're Too Late."
01:25:30.081 : :Explosive Encounter
01:28:43.480 : :Outnumbered
01:32:11.230 : :A Monstrous Duel
01:35:54.121 : :Light of New Hope
-

_________________
Показать сообщения:    

Текущее время: Сегодня 00:53

Часовой пояс: GMT



Вы не можете начинать темы
Вы не можете отвечать на сообщения
Вы не можете редактировать свои сообщения
Вы не можете удалять свои сообщения
Вы не можете голосовать в опросах
Вы не можете прикреплять файлы к сообщениям
Вы не можете скачивать файлы