Важное объявление!
У Нас Все раздачи мультитрекерные, при нуле пиров в релизах, можете смело вставать на закачку!
 
Автор Сообщение

HUNTER

Стаж:
4 года 4 месяца
Сообщений:
56798

Репутация: 101

[+] [-]
Вне форума [Профиль] [ЛС]

ДРАКУЛА / DRACULA-
-Страна: Великобритания
Жанр: ужасы
Год выпуска: 1958
Продолжительность: 01:22:06-Перевод: Авторский (одноголосый закадровый) Сонькин
Cубтитры: английские
Оригинальная аудиодорожка: английский-Режиссер: Теренс Фишер / Terence Fisher
Сценарий: Джимми Сэнгстер, Брэм Стокер
Продюсер: Энтони Хиндс, Майкл Каррерас, Энтони Нельсон Кис
Оператор: Джек Эшер
Композитор: Джеймс Бернард
Художник: Бернард Робинсон, Молли Арбутнот
Монтаж: Билл Ленни
В ролях: Питер Кушинг (Peter Cushing),Кристофер Ли (Christopher Lee),Майкл Гофф (Michael Gough),Мелисса Стриблинг (Melissa Stribling),Джон Ван Айсен (John Van Eyssen)-Описание: Джонатан Харкер прибывает в замок Дракулы с намерением убить легендарного вампира, но ему это не удаётся, более того — он сам превращается в вампира и погибает от руки Ван Хельсинга. Тем временем Дракула объявляется в родном городе Харкера и начинает преследовать его возлюбленную.- -Тип релиза: BDRemux 1080p
Контейнер: MKV
Видео: AVC 1920x1080@24fps ~31.6 Mbps 16:9 High @ 4.1
Аудио 1: AVO Сонькин AC3 192 kBit/s 48 kHz 2.0 DD
Аудио 2: English LPCM 1536 kbps 48kHz/24-bit 2.0
Аудио 3: Commentaries AC3 192 kBit/s 48 kHz 2.0 DD
Формат субтитров: softsub (SRT)-

MediaInfo

General
Unique ID : 237884356734879808077390323638409471935 (0xB2F6DC4FDE64D5869CBAEE7DF7E9A7BF)
Complete name : I:\__R__\Dracula (1958).mkv
Format : Matroska
Format version : Version 4 / Version 2
File size : 18.2 GiB
Duration : 1h 22mn
Overall bit rate mode : Variable
Overall bit rate : 31.7 Mbps
Encoded date : UTC 2014-02-14 18:12:34
Writing application : mkvmerge v6.5.0 ('Isn't she lovely') built on Oct 20 2013 12:50:05
Writing library : libebml v1.3.0 + libmatroska v1.4.1
Attachment : Yes
Video
ID : 1
Format : AVC
Format/Info : Advanced Video Codec
Format profile : High@L4.1
Format settings, CABAC : Yes
Format settings, ReFrames : 4 frames
Format settings, GOP : M=3, N=12
Codec ID : V_MPEG4/ISO/AVC
Duration : 1h 22mn
Bit rate mode : Variable
Maximum bit rate : 33.0 Mbps
Width : 1 920 pixels
Height : 1 080 pixels
Display aspect ratio : 16:9
Frame rate mode : Constant
Frame rate : 24.000 fps
Color space : YUV
Chroma subsampling : 4:2:0
Bit depth : 8 bits
Scan type : Progressive
Title : AVC 1920x1080@24fps ~31.6 Mbps 16:9 High @ 4.1
Language : English
Default : Yes
Forced : No
Audio #1
ID : 2
Format : AC-3
Format/Info : Audio Coding 3
Mode extension : CM (complete main)
Format settings, Endianness : Big
Codec ID : A_AC3
Duration : 1h 22mn
Bit rate mode : Constant
Bit rate : 192 Kbps
Channel count : 2 channels
Channel positions : Front: L R
Sampling rate : 48.0 KHz
Bit depth : 16 bits
Compression mode : Lossy
Stream size : 113 MiB (1%)
Language : Russian
Default : No
Forced : No
Audio #2
ID : 3
Format : PCM
Codec ID : A_PCM/INT/LIT
Duration : 1h 22mn
Bit rate mode : Constant
Channel count : 2 channels
Sampling rate : 48.0 KHz
Bit depth : 16 bits
Title : LPCM 1536 kbps 48kHz/24-bit 2.0
Language : English
Default : No
Forced : No
Audio #3
ID : 4
Format : AC-3
Format/Info : Audio Coding 3
Mode extension : CM (complete main)
Format settings, Endianness : Big
Codec ID : A_AC3
Duration : 1h 22mn
Bit rate mode : Constant
Bit rate : 192 Kbps
Channel count : 2 channels
Channel positions : Front: L R
Sampling rate : 48.0 KHz
Bit depth : 16 bits
Compression mode : Lossy
Stream size : 113 MiB (1%)
Language : English
Default : No
Forced : No
Text #1
ID : 5
Format : UTF-8
Codec ID : S_TEXT/UTF8
Codec ID/Info : UTF-8 Plain Text
Language : English
Default : No
Forced : No
Text #2
ID : 6
Format : PGS
Muxing mode : zlib
Codec ID : S_HDMV/PGS
Codec ID/Info : The same subtitle format used on BDs/HD-DVDs
Language : English
Default : No
Forced : No

Скриншоты


_________________
Показать сообщения:    

Текущее время: Сегодня 06:54

Часовой пояс: GMT



Вы не можете начинать темы
Вы не можете отвечать на сообщения
Вы не можете редактировать свои сообщения
Вы не можете удалять свои сообщения
Вы не можете голосовать в опросах
Вы не можете прикреплять файлы к сообщениям
Вы не можете скачивать файлы