Важное объявление!
У Нас Все раздачи мультитрекерные, при нуле пиров в релизах, можете смело вставать на закачку!
 
Автор Сообщение

HUNTER

Стаж:
4 года 4 месяца
Сообщений:
56755

Репутация: 101

[+] [-]
Вне форума [Профиль] [ЛС]

Дракула / Dracula Untold
Страна: США
Студия: Universal Pictures, Legendary Pictures, Michael De Luca Productions
Жанр: ужасы, фэнтези, боевик, драма, военный
Год выпуска: 2014
Продолжительность: 01:32:10
Перевод: Профессиональный (дублированный) | iTunes Russia
Cубтитры: нет
Оригинальная аудиодорожка: нет
Режиссер: Гари Шор / Gary Shore
В ролях: Люк Эванс, Сара Гадон, Доминик Купер, Арт Паркинсон, Чарльз Дэнс, Дайармейд Мерта, Пол Кэй, Уильям Хьюстон, Ной Хантли, Ронан Вайберт
Описание: Влад Дракула был величайшим правителем, доблестным воином и страстным мужчиной. Но судьба свела его с врагом, коварство которого не знало границ. И тогда Дракула заключил сделку – нечеловеческая сила в обмен на самую малость – бессмертную душу…
Релиз: by Dreamcatcher
Сэмпл: http://multi-up.com/1017342
Тип релиза: WEB-DL 720p
Контейнер: MKV
Видео: 1280x532 at 23.976 fps, MPEG-4 AVC, ~3983 kbps avg
Аудио: Russian: 48 kHz, AC3, 3/2 (L,C,R,l,r) + LFE ch, ~384.00 kbps avg |Дубляж, iTunes Russia|

MediaInfo

General
Unique ID : 251049971113667155886251113987038505097 (0xBCDE77377EB719F380D2FE89FD87E889)
Complete name : D:\Видео\Movies\Dracula.Untold.2014.720p.WEB-DL.Rus.HDCLUB.mkv
Format : Matroska
Format version : Version 2
File size : 2.87 GiB
Duration : 1h 32mn
Overall bit rate : 4 456 Kbps
Movie name : Dracula Untold (2014) - Release for HDCLUB
Encoded date : UTC 2014-12-03 21:17:40
Writing application : mkvmerge v3.4.0 ('Rapunzel') built on May 15 2010 09:38:20
Writing library : libebml v0.8.0 + libmatroska v0.9.0
Video
ID : 1
Format : AVC
Format/Info : Advanced Video Codec
Format profile : Main@L3.1
Format settings, CABAC : No
Format settings, ReFrames : 2 frames
Codec ID : V_MPEG4/ISO/AVC
Duration : 1h 32mn
Bit rate : 3 983 Kbps
Width : 1 280 pixels
Height : 532 pixels
Display aspect ratio : 2.40:1
Frame rate mode : Constant
Frame rate : 23.976 fps
Color space : YUV
Chroma subsampling : 4:2:0
Bit depth : 8 bits
Scan type : Progressive
Bits/(Pixel*Frame) : 0.244
Stream size : 2.56 GiB (89%)
Title : Dracula Untold (2014) - Release for HDCLUB
Language : English
Default : Yes
Forced : No
Color primaries : BT.709
Transfer characteristics : BT.709
Matrix coefficients : BT.709
Audio
ID : 2
Format : AC-3
Format/Info : Audio Coding 3
Mode extension : CM (complete main)
Format settings, Endianness : Big
Codec ID : A_AC3
Duration : 1h 32mn
Bit rate mode : Constant
Bit rate : 384 Kbps
Channel count : 6 channels
Channel positions : Front: L C R, Side: L R, LFE
Sampling rate : 48.0 KHz
Bit depth : 16 bits
Compression mode : Lossy
Stream size : 253 MiB (9%)
Title : AC3 5.1 @ 384 kbps - DUB, iTunes
Language : Russian
Default : Yes
Forced : No
Menu
00:00:00.000 : en:глава 1
00:04:09.000 : en:глава 2
00:07:22.000 : en:глава 3
00:11:34.000 : en:глава 4
00:16:32.000 : en:глава 5
00:22:55.000 : en:глава 6
00:30:22.000 : en:глава 7
00:34:16.000 : en:глава 8
00:38:58.000 : en:глава 9
00:43:02.000 : en:глава 10
00:47:05.000 : en:глава 11
00:53:18.000 : en:глава 12
00:57:41.000 : en:глава 13
01:00:49.000 : en:глава 14
01:04:31.000 : en:глава 15
01:09:14.000 : en:глава 16
01:12:49.000 : en:глава 17
01:17:13.000 : en:глава 18
01:21:54.000 : en:глава 19
01:25:01.000 : en:глава 20

Скриншоты



_________________
Показать сообщения:    

Текущее время: Сегодня 18:01

Часовой пояс: GMT



Вы не можете начинать темы
Вы не можете отвечать на сообщения
Вы не можете редактировать свои сообщения
Вы не можете удалять свои сообщения
Вы не можете голосовать в опросах
Вы не можете прикреплять файлы к сообщениям
Вы не можете скачивать файлы