Важное объявление!
У Нас Все раздачи мультитрекерные, при нуле пиров в релизах, можете смело вставать на закачку!
 
Автор Сообщение

HUNTER

Стаж:
4 года 4 месяца
Сообщений:
56822

Репутация: 101

[+] [-]
Вне форума [Профиль] [ЛС]

Дракула / Dracula Untold«Легенда обретёт бессмертие»-

Год выпуска:2014
Страна: США
Жанр: Ужасы, фэнтези, боевик, драма, военный
Продолжительность: 01:32:08
Перевод: Дублированный Лицензия
Субтитры:
Русский Английский
В ролях:Люк Эванс, Сара Гадон, Доминик Купер, Арт Паркинсон, Чарльз Дэнс, Дайармейд Мерта, Пол Кэй, Уильям Хьюстон, Ной Хантли, Ронан Вайберт
Режиссёр:Гари Шор

Влад Дракула был величайшим правителем, доблестным воином и страстным мужчиной. Но судьба свела его с врагом, коварство которого не знало границ. И тогда Дракула заключил сделку — нечеловеческая сила в обмен на самую малость — бессмертную душу…

Качество: BDRemux
Формат: MKV
Видео кодек: MPEG-4 AVC/H.264
Аудио кодек: DTS
Видео: AVC, 1920x1080 (16:9), 23.976 fps, 29.2 Mbps (0.587 bit/pixel)
Аудио 1: DTS, 48.0 KHz, 6 ch, 755 Kbps, CBR (Russian)
Аудио 2: DTS, 48.0 KHz, 6 ch, 755 Kbps, CBR (Hungarian)
Аудио 3: DTS MA / Core, 48.0 KHz, 6 ch, 2 701 Kbps / 1 510 Kbps, VBR (English)

Рейтинг

MediaInfo

Код: copyText_writeLink('this.parentNode.parentNode.nextSibling.nextSibling');
Код:
идео
Идентификатор                            : 1
Формат                                   : AVC
Формат/Информация                        : Advanced Video Codec
Профиль формата                          : High@L4.1
Параметр CABAC формата                   : Да
Параметр ReFrames формата                : 4 кадра
Режим смешивания                         : Header stripping
Идентификатор кодека                     : V_MPEG4/ISO/AVC
Продолжительность                        : 1 ч. 32 м.
Вид битрейта                             : Переменный
Максимальный битрейт                     : 33,0 Мбит/сек
Ширина                                   : 1920 пикселей
Высота                                   : 1080 пикселей
Соотношение сторон                       : 16:9
Режим частоты кадров                     : Постоянный
Частота кадров                           : 23,976 кадра/сек
Цветовое пространство                    : YUV
Субдискретизация насыщенности            : 4:2:0
Битовая глубина                          : 8 бит
Тип развёртки                            : Прогрессивная
Заголовок                                : Dracula_Untold_Rustorka.com_karlmenni_BDRemux
Default                                  : Да
Forced                                   : Нет
Аудио #1
Идентификатор                            : 2
Формат                                   : DTS
Формат/Информация                        : Digital Theater Systems
Профиль формата                          : MA / Core
Режим                                    : 16
Параметр Endianness формата              : Big
Режим смешивания                         : Header stripping
Идентификатор кодека                     : A_DTS
Продолжительность                        : 1 ч. 32 м.
Вид битрейта                             : Переменный
Битрейт                                  : Неизвестно / 1509 Кбит/сек
Каналы                                   : 6 каналов
Расположение каналов                     : Front: L C R, Side: L R, LFE
Частота                                  : 48,0 КГц
Битовая глубина                          : 24 бит
Метод сжатия                             : Без потерь / Lossy
Язык                                     : English
Default                                  : Нет
Forced                                   : Нет
Аудио #2
Идентификатор                            : 3
Формат                                   : DTS
Формат/Информация                        : Digital Theater Systems
Режим                                    : 16
Параметр Endianness формата              : Big
Режим смешивания                         : Header stripping
Идентификатор кодека                     : A_DTS
Продолжительность                        : 1 ч. 32 м.
Вид битрейта                             : Постоянный
Битрейт                                  : 768 Кбит/сек
Каналы                                   : 6 каналов
Расположение каналов                     : Front: L C R, Side: L R, LFE
Частота                                  : 48,0 КГц
Битовая глубина                          : 24 бит
Метод сжатия                             : С потерями
Размер потока                            : 506 Мбайт (2%)
Язык                                     : Hungarian
Default                                  : Нет
Forced                                   : Нет
Аудио #3
Идентификатор                            : 4
Формат                                   : DTS
Формат/Информация                        : Digital Theater Systems
Режим                                    : 16
Параметр Endianness формата              : Big
Режим смешивания                         : Header stripping
Идентификатор кодека                     : A_DTS
Продолжительность                        : 1 ч. 32 м.
Вид битрейта                             : Постоянный
Битрейт                                  : 768 Кбит/сек
Каналы                                   : 6 каналов
Расположение каналов                     : Front: L C R, Side: L R, LFE
Частота                                  : 48,0 КГц
Битовая глубина                          : 24 бит
Метод сжатия                             : С потерями
Размер потока                            : 506 Мбайт (2%)
Язык                                     : Russian
Default                                  : Да
Forced                                   : Да
Текст #1
Идентификатор                            : 5
Формат                                   : PGS
Режим смешивания                         : zlib
Идентификатор кодека                     : S_HDMV/PGS
Идентификатор кодека/Информация          : The same subtitle format used on BDs/HD-DVDs
Default                                  : Да
Forced                                   : Нет
Текст #2
Идентификатор                            : 6
Формат                                   : PGS
Режим смешивания                         : zlib
Идентификатор кодека                     : S_HDMV/PGS
Идентификатор кодека/Информация          : The same subtitle format used on BDs/HD-DVDs
Default                                  : Нет
Forced                                   : Нет

Скриншоты


Знаете ли вы, что...

  • Изначально Саманта Баркс была взята на роль Бабы-яги, также роль в фильме получил Чарли Кокс. Но в итоге все сцены с участием их персонажей были удалены.
  • Съемки, начавшиеся 5 августа 2013 года, проходили в Северной Ирландии. 5 и 6 августа они проходили в парке Ро Вэлли Кантри.
  • На роль, которая досталась Люку Эвансу, рассматривался Сэм Уортингтон.
  • Эбби Корниш отказалась от предложения исполнить главную женскую роль.

_________________
Показать сообщения:    

Текущее время: Сегодня 01:35

Часовой пояс: GMT



Вы не можете начинать темы
Вы не можете отвечать на сообщения
Вы не можете редактировать свои сообщения
Вы не можете удалять свои сообщения
Вы не можете голосовать в опросах
Вы не можете прикреплять файлы к сообщениям
Вы не можете скачивать файлы