Важное объявление!
У Нас Все раздачи мультитрекерные, при нуле пиров в релизах, можете смело вставать на закачку!
 
Автор Сообщение

HUNTER

Стаж:
4 года 4 месяца
Сообщений:
56790

Репутация: 101

[+] [-]
Вне форума [Профиль] [ЛС]

Драконий Жемчуг Зет: Фильм четвертый / Dragon Ball Z: Lord Slug
Страна: Япония
Год выпуска: 1991 г.
Жанр: приключения, комедия, фэнтези, сёнэн
Тип: Movie
Продолжительность: 50 минут
Режиссер: Хасимото Мицуо
Студия: Toel Animation
Описание: Конец света грозит Земле в форме приближающегося гигантского астероида. Гоку и Курилин спешат к нему навстречу и, используя свои невероятные силы, сбивают астероид с его курса. Земля спасена... или это еще не конец истории? Темный корабль спускается с поверхности астероида и несет он нового врага - Господина Слага.
Качество: BDRip
Тип релиза: Без хардсаба
Формат видео: MKV
Наличие линковки: Нет
Видео: AVC(H264) 1280x720 23.976fps 4639kbps 8 bit
Аудио: Dolby AC3, 48000Hz, 2ch, 192kbps Язык Русский Язык Русский (в составе контейнера) ; Озвучка: (в составе контейнера) ; Озвучка: Shoker (Одноголосый М)
Подробные тех. данные
ОбщееУникальный идентификатор : 230209031881135582696189938037875183034 (0xAD30A5947A15354BA0A101BCE3828DBA)Полное имя : C:\Загрузки\[LE-Production]_Dragon_Ball_Z_Movie_[04]_[720p]_[Shoker].mkvФормат : MatroskaВерсия формата : Version 4 / Version 2Размер файла : 1,78 ГбайтПродолжительность : 51 м.Общий поток : 4927 Кбит/секДата кодирования : UTC 2014-05-09 15:58:58Программа кодирования : mkvmerge v6.4.1 ('Omega Point') built on Sep 16 2013 22:05:10Библиотека кодирования : libebml v1.3.0 + libmatroska v1.4.1
ВидеоИдентификатор : 1Формат : AVCФормат/Информация : Advanced Video CodecПрофиль формата : High@L3.1Параметр CABAC формата : ДаПараметр ReFrames формата : 5 кадровИдентификатор кодека : V_MPEG4/ISO/AVCПродолжительность : 51 м.Битрейт : 4755 Кбит/секШирина : 1280 пикселейВысота : 720 пикселейСоотношение сторон : 16:9Режим частоты кадров : ПостоянныйЧастота кадров : 23,976 кадра/секЦветовое пространство : YUVСубдискретизация насыщенности : 4:2:0Битовая глубина : 8 битТип развёртки : ПрогрессивнаяБит/(Пиксели*Кадры) : 0.215Размер потока : 1,68 Гбайт (94%)Библиотека кодирования : x264 core 64 r988 41c9e22Настройки программы : cabac=1 / ref=5 / deblock=1:0:0 / analyse=0x3:0x113 / me=umh / subme=6 / psy_rd=1.0:0.0 / brdo=1 / mixed_ref=1 / me_range=16 / chroma_me=1 / trellis=1 / 8x8dct=1 / cqm=0 / deadzone=21,11 / chroma_qp_offset=-2 / threads=6 / nr=0 / decimate=1 / mbaff=0 / bframes=3 / b_pyramid=1 / b_adapt=1 / b_bias=0 / direct=1 / wpredb=1 / bime=1 / keyint=250 / keyint_min=25 / scenecut=40(pre) / rc=2pass / bitrate=4755 / ratetol=1.0 / qcomp=0.60 / qpmin=10 / qpmax=51 / qpstep=4 / cplxblur=20.0 / qblur=0.5 / ip_ratio=1.40 / pb_ratio=1.30 / aq=1:1.00Язык : EnglishDefault : ДаForced : Нет
АудиоИдентификатор : 2Формат : AC-3Формат/Информация : Audio Coding 3Расширение режима : CM (complete main)Параметр Endianness формата : BigИдентификатор кодека : A_AC3Продолжительность : 51 м.Вид битрейта : ПостоянныйБитрейт : 192 Кбит/секКаналы : 2 каналаРасположение каналов : Front: L RЧастота : 48,0 КГцБитовая глубина : 16 битМетод сжатия : С потерямиРазмер потока : 71,2 Мбайт (4%)Заголовок : RusЯзык : RussianDefault : ДаForced : Нет
ОтличияСкриншоты

_________________

Romazeo

Стаж:
3 дня
Сообщений:
1
Вне форума [Профиль] [ЛС]

Спасибо, а то нигде нормального нет.
Показать сообщения:    

Текущее время: Сегодня 15:53

Часовой пояс: GMT



Вы не можете начинать темы
Вы не можете отвечать на сообщения
Вы не можете редактировать свои сообщения
Вы не можете удалять свои сообщения
Вы не можете голосовать в опросах
Вы не можете прикреплять файлы к сообщениям
Вы не можете скачивать файлы