Важное объявление!
У Нас Все раздачи мультитрекерные, при нуле пиров в релизах, можете смело вставать на закачку!
 
Автор Сообщение

HUNTER

Стаж:
4 года 4 месяца
Сообщений:
56719

Репутация: 101

[+] [-]
Вне форума [Профиль] [ЛС]

Дофус. Том I: Джулит
Dofus. Livre I: Julith
Год выпуска: 2015
Страна: Франция
Жанр: мультфильм, фэнтези, комедия, приключения
Продолжительность: 01:47:53
Перевод: Любительский (Многоголосый закадровый) - ArtVoiceStudio
русские субтитры: есть-Режиссёр: Антони Ру / Anthony Roux, Жан-Жак Дени / Jean-Jacques Denis-Роли озвучивали: Сован Деланоэ, Жан-Клод Донда, Emmanuel Gradi, Летиция Лефевр, Франсуа Сьенер-Описание: В четырехсотом году, в Бонте, юный Жорис мирно живет со своим приемным отцом, Керубимом Крепаном, старым экафлипом. У него есть подруга, Лилот, которая каждый день приходит к нему в гости.
Казалось бы, обыкновенная семья. Но такой ли обычный ребенок Жорис, и такой ли обычный у него отец?- релиз: -- Спасибо [url=profile.php?mode=viewprofile&u=345930]TrueSeer[/url] за Многоголоску.-Качество: WEB-DL 720p |[url=viewtopic.php?t=5240383]Исходник[/url]|
Формат: MKV
Видео: 1280x690, 24 fps, ~4043 kbps avg, 0.191 bit/pixel
Аудио 1: [RUS] 48 kHz, AC3 Dolby Digital, 2/0 (L,R) ch, ~192 kbps
Аудио 2: [ENG] 48 kHz, AC3 Dolby Digital, 3/2 (L,C,R,l,r) + LFE ch, ~384 kbps
субтитры: русские (Plus4Chan Team), английские, французские
навигация по главам: 10 глав (не именные)

MI

Общее
Уникальный идентификатор : 181018958361042751210874004437008293828 (0x882EFBB5AD7E5A8291B061BE19669FC4)
Полное имя : D:\Dofus\Dofus. Livre I. Julith.2015.WEB-DL 720p.mkv
Формат : Matroska
Версия формата : Version 4 / Version 2
Размер файла : 3,48 Гбайт
Продолжительность : 1 ч. 47 м.
Общий поток : 4621 Кбит/сек
Название фильма : Dofus. Livre I: Julith.2015.WEB-DL 720p -Azureus-
Дата кодирования : UTC 2016-10-05 20:06:35
Программа кодирования : mkvmerge v9.4.0 ('Knurl') 64bit
Библиотека кодирования : libebml v1.3.4 + libmatroska v1.4.5
Видео
Идентификатор : 1
Формат : AVC
Формат/Информация : Advanced Video Codec
Профиль формата : High@L3.1
Параметр CABAC формата : Нет
Параметр ReFrames формата : 2 кадра
Идентификатор кодека : V_MPEG4/ISO/AVC
Продолжительность : 1 ч. 47 м.
Битрейт : 4043 Кбит/сек
Ширина : 1280 пикселей
Высота : 690 пикселей
Соотношение сторон : 1,85:1
Режим частоты кадров : Постоянный
Частота кадров : 24,000 кадра/сек
Цветовое пространство : YUV
Субдискретизация насыщенности : 4:2:0
Битовая глубина : 8 бит
Тип развёртки : Прогрессивная
Бит/(Пиксели*Кадры) : 0.191
Размер потока : 3,05 Гбайт (87%)
Язык : English
Default : Да
Forced : Нет
Цветовой диапазон : Limited
Основные цвета : BT.709
Характеристики трансфера : BT.709
Коэффициенты матрицы : BT.709
Аудио #1
Идентификатор : 2
Формат : AC-3
Формат/Информация : Audio Coding 3
Расширение режима : CM (complete main)
Параметр Endianness формата : Big
Идентификатор кодека : A_AC3
Продолжительность : 1 ч. 47 м.
Вид битрейта : Постоянный
Битрейт : 192 Кбит/сек
Каналы : 2 канала
Расположение каналов : Front: L R
Частота : 48,0 КГц
Частота кадров : 31,250 кадров/сек (1536 spf)
Метод сжатия : С потерями
Размер потока : 148 Мбайт (4%)
Заголовок : MVO - ArtVoiceStudio
Язык : Russian
Default : Да
Forced : Нет
Аудио #2
Идентификатор : 3
Формат : AC-3
Формат/Информация : Audio Coding 3
Расширение режима : CM (complete main)
Параметр Endianness формата : Big
Идентификатор кодека : A_AC3
Продолжительность : 1 ч. 47 м.
Вид битрейта : Постоянный
Битрейт : 384 Кбит/сек
Каналы : 6 каналов
Расположение каналов : Front: L C R, Side: L R, LFE
Частота : 48,0 КГц
Частота кадров : 31,250 кадров/сек (1536 spf)
Метод сжатия : С потерями
Размер потока : 296 Мбайт (8%)
Заголовок : FRE
Язык : French
Default : Нет
Forced : Нет
Текст #1
Идентификатор : 4
Формат : UTF-8
Идентификатор кодека : S_TEXT/UTF8
Идентификатор кодека/Информация : UTF-8 Plain Text
Продолжительность : 1 ч. 47 м.
Битрейт : 74 бит/сек
Count of elements : 910
Размер потока : 58,2 Кбайт (0%)
Заголовок : Rus Sub - Plus4Chan Team
Язык : Russian
Default : Нет
Forced : Нет
Текст #2
Идентификатор : 5
Формат : UTF-8
Идентификатор кодека : S_TEXT/UTF8
Идентификатор кодека/Информация : UTF-8 Plain Text
Продолжительность : 1 ч. 47 м.
Битрейт : 45 бит/сек
Count of elements : 905
Размер потока : 36,1 Кбайт (0%)
Заголовок : Eng Sub
Язык : English
Default : Нет
Forced : Нет
Текст #3
Идентификатор : 6
Формат : UTF-8
Идентификатор кодека : S_TEXT/UTF8
Идентификатор кодека/Информация : UTF-8 Plain Text
Продолжительность : 1 ч. 47 м.
Битрейт : 50 бит/сек
Count of elements : 900
Размер потока : 39,9 Кбайт (0%)
Заголовок : Fre Sub
Язык : French
Default : Нет
Forced : Нет
Меню
00:00:00.000 : en:Chapitre 1
00:10:13.791 : en:Chapitre 2
00:20:10.791 : en:Chapitre 3
00:30:05.791 : en:Chapitre 4
00:40:00.582 : en:Chapitre 5
00:50:05.290 : en:Chapitre 6
01:00:00.498 : en:Chapitre 7
01:09:59.831 : en:Chapitre 8
01:20:09.331 : en:Chapitre 9
01:30:08.664 : en:Chapitre 10

_________________
Показать сообщения:    

Текущее время: Сегодня 18:21

Часовой пояс: GMT



Вы не можете начинать темы
Вы не можете отвечать на сообщения
Вы не можете редактировать свои сообщения
Вы не можете удалять свои сообщения
Вы не можете голосовать в опросах
Вы не можете прикреплять файлы к сообщениям
Вы не можете скачивать файлы