Важное объявление!
У Нас Все раздачи мультитрекерные, при нуле пиров в релизах, можете смело вставать на закачку!
 
Автор Сообщение

HUNTER

Стаж:
4 года 4 месяца
Сообщений:
56853

Репутация: 101

[+] [-]
Вне форума [Профиль] [ЛС]

Дорогая Мамочка / Mommie Dearest
Страна: США
Студия: Paramount Pictures
Жанр: драма, биография
Год выпуска: 1981
Продолжительность: 02:08:51
Перевод: Профессиональный (многоголосый закадровый) Paramount channel
Cубтитры: русские, английские
Оригинальная аудиодорожка: английский
Режиссер: Фрэнк Перри / Frank Perry
В ролях: Фэй Данауэй, Дайана Скаруид, Стив Форрест, Ховард Да Сильва, Мара Хобел, Рутанья Алда, Гарри Гоз, Майкл Эдвардс, Жослин Брандо, Присцилла Пойнтер, и др.
Описание: Экранизация одноименного бестселлера Кристины Кроуфорд. В фильме показана драматичная история взросления юной Кристины в семье своей приёмной матери Джоан Кроуфорд, одной из известнейших голливудских актрис 40-х годов.
II Сэмпл II IMDB II
Доп. информация:
Многоголоска записана с т/к Paramount channel
Тип релиза: WEB-DL 720p
Контейнер: MKV
Видео: AVC / 1280x718 / 16:9 / 23.976fps / Bit rate 3960Kbps
Аудио 1: AC3 / 48.0 KHz / 2ch. / 192kbps / rus / MVO / Paramount channel
Аудио 2: AC3 / 48.0 KHz / 6ch. / 384kbps / eng
Формат субтитров: softsub (SRT)

MediaInfo

Общее
Уникальный идентификатор : 224316075910126241306138638119276307727 (0xA8C1B46B2B5DADDE976D7C15E3F2E50F)
Полное имя : G:\!!!_torrent\Mommie.Dearest.1981.WEB-DL.720p_by_vedigo.mkv
Формат : Matroska
Версия формата : Version 4 / Version 2
Размер файла : 4,17 Гбайт
Продолжительность : 2 ч. 8 м.
Общий поток : 4628 Кбит/сек
Название фильма : Mommie.Dearest.1981.WEB-DL.720p_by_vedigo
Дата кодирования : UTC 2015-11-13 02:10:23
Программа кодирования : mkvmerge v8.5.2 ('Crosses') 64bit
Библиотека кодирования : libebml v1.3.3 + libmatroska v1.4.4
DURATION : 02:00:38.830000000
NUMBER_OF_FRAMES : 1115
NUMBER_OF_BYTES : 41440
_STATISTICS_WRITING_APP : mkvmerge v8.5.2 ('Crosses') 64bit
_STATISTICS_WRITING_DATE_UTC : 2015-11-13 02:10:23
_STATISTICS_TAGS : BPS DURATION NUMBER_OF_FRAMES NUMBER_OF_BYTES
Видео
Идентификатор : 1
Формат : AVC
Формат/Информация : Advanced Video Codec
Профиль формата : High@L3.1
Параметр CABAC формата : Нет
Параметр ReFrames формата : 2 кадра
Идентификатор кодека : V_MPEG4/ISO/AVC
Продолжительность : 2 ч. 8 м.
Битрейт : 3960 Кбит/сек
Ширина : 1280 пикселей
Высота : 718 пикселей
Соотношение сторон : 16:9
Режим частоты кадров : Постоянный
Частота кадров : 23,976 кадра/сек
Цветовое пространство : YUV
Субдискретизация насыщенности : 4:2:0
Битовая глубина : 8 бит
Тип развёртки : Прогрессивная
Бит/(Пиксели*Кадры) : 0.180
Размер потока : 3,56 Гбайт (86%)
Заголовок : Mommie.Dearest.1981.WEB-DL.720p_by_vedigo
Default : Да
Forced : Нет
Цветовой диапазон : Limited
Основные цвета : BT.709
Характеристики трансфера : BT.709
Коэффициенты матрицы : BT.709
Аудио #1
Идентификатор : 2
Формат : AC-3
Формат/Информация : Audio Coding 3
Расширение режима : CM (complete main)
Параметр Endianness формата : Big
Идентификатор кодека : A_AC3
Продолжительность : 2 ч. 8 м.
Вид битрейта : Постоянный
Битрейт : 192 Кбит/сек
Каналы : 2 канала
Расположение каналов : Front: L R
Частота : 48,0 КГц
Метод сжатия : С потерями
Размер потока : 177 Мбайт (4%)
Заголовок : MVO @ Paramount channel
Язык : Russian
Default : Да
Forced : Нет
Аудио #2
Идентификатор : 3
Формат : AC-3
Формат/Информация : Audio Coding 3
Расширение режима : CM (complete main)
Параметр Endianness формата : Big
Идентификатор кодека : A_AC3
Продолжительность : 2 ч. 8 м.
Вид битрейта : Постоянный
Битрейт : 384 Кбит/сек
Каналы : 6 каналов
Расположение каналов : Front: L C R, Side: L R, LFE
Частота : 48,0 КГц
Метод сжатия : С потерями
Размер потока : 354 Мбайт (8%)
Заголовок : original
Язык : English
Default : Нет
Forced : Нет
Текст #1
Идентификатор : 4
Формат : UTF-8
Идентификатор кодека : S_TEXT/UTF8
Идентификатор кодека/Информация : UTF-8 Plain Text
Заголовок : subtitle rus
Язык : Russian
Default : Нет
Forced : Нет
Текст #2
Идентификатор : 5
Формат : UTF-8
Идентификатор кодека : S_TEXT/UTF8
Идентификатор кодека/Информация : UTF-8 Plain Text
Заголовок : subtitle eng
Язык : English
Default : Нет
Forced : Нет

Скриншоты



_________________
Показать сообщения:    

Текущее время: Сегодня 10:40

Часовой пояс: GMT



Вы не можете начинать темы
Вы не можете отвечать на сообщения
Вы не можете редактировать свои сообщения
Вы не можете удалять свои сообщения
Вы не можете голосовать в опросах
Вы не можете прикреплять файлы к сообщениям
Вы не можете скачивать файлы
Наши партнеры: интернет магазин Ивановского трикотажа textilla.ru