Важное объявление!
У Нас Все раздачи мультитрекерные, при нуле пиров в релизах, можете смело вставать на закачку!
 
Автор Сообщение

HUNTER

Стаж:
4 года 4 месяца
Сообщений:
56733

Репутация: 101

[+] [-]
Вне форума [Профиль] [ЛС]

Сегодня я хочу назад в одиночество / Hoje Eu Quero Voltar Sozinho
Страна: Бразилия
Жанр: мелодрама, драма
Год выпуска: 2014
Продолжительность: 01:36:15
Перевод: Субтитры от БлогБастер
Cубтитры 1 : русские (переведены с английских)
Cубтитры 2 : английские
Оригинальная аудиодорожка: португальский
Режиссер: Даниэль Рибейро / Daniel Ribeiro
В ролях: Гильерме Лобо, Фабио Ауди, Тэсс Аморим и др.
Описание: Леонардо - слепой подросток, тщетно пытающийся выйти из-под щепетильной опеки любящей матери. К разочарованию лучшей подруги Джованны, он собирается уехать учиться за границу. Но с приходом в их класс новичка Габриэля жизнь Леонардо резко меняется…
"Сегодня я хочу назад в одиночество / Сегодня я не хочу возвращаться один” - молодежная драма, созданная на основе короткометражного фильма “Я не хочу возвращаться один” (2010) http://rutracker.org/forum/viewtopic.php?t=4365497 , из которого вышли и исполнители главных ролей: Гильерме Лобо, Фабио Ауди, Тэсс Аморим. Съемки проходили в бразильском городе Сан-Паоло. В феврале 2014 года фильм стал участником 64-го международного кинофестиваля в Берлине, завоевав сразу две награды: приз Международной федерации кинопрессы (FIPRESCI), приз Teddy за лучший фильм, посвященный теме ЛГБТ. В бразильский кинопрокат фильм вышел 10 апреля 2014 года, завоевав пятый в стране результат по посещаемости в день премьеры. В международном прокате известен под названием “Дорога, которую он выбирает” (The Way He Looks).
Сэмпл: http://multi-up.com/985780
Тип релиза: WEB-DL 720p
Контейнер: MKV
Видео: AVC, NTSC, 1280x528, 23,976 fps; 5792 kbps
Аудио: португальский, AC3; 48,0 kHz; 5.1 ch; 384 kbps
Чаптеры: есть

MediaInfo

Общее
Уникальный идентификатор : 213746798101426020128299888990231378752 (0xA0CE22CA36D1E87DAD8637D8A74ABB40)
Полное имя : E:\Скаченное с Интернета\µTorrent новые\Hoje Eu Quero Voltar Sozinho.mkv
Формат : Matroska
Версия формата : Version 4 / Version 2
Размер файла : 4,24 Гбайт
Продолжительность : 1 ч. 36 м.
Общий поток : 6302 Кбит/сек
Дата кодирования : UTC 2014-07-11 20:00:42
Программа кодирования : mkvmerge v6.0.0 ('Coming Up For Air') built on Jan 20 2013 09:52:00
Библиотека кодирования : libebml v1.3.0 + libmatroska v1.4.0
Видео
Идентификатор : 1
Формат : AVC
Формат/Информация : Advanced Video Codec
Профиль формата : Main@L4.0
Параметр CABAC формата : Да
Параметр ReFrames формата : 4 кадра
Идентификатор кодека : V_MPEG4/ISO/AVC
Продолжительность : 1 ч. 36 м.
Битрейт : 5792 Кбит/сек
Ширина : 1280 пикселей
Высота : 528 пикселей
Соотношение сторон : 2,40:1
Частота кадров : 23,976 кадра/сек
Стандарт вещания : Component
Цветовое пространство : YUV
Субдискретизация насыщенности : 4:2:0
Битовая глубина : 8 бит
Тип развёртки : Прогрессивная
Бит/(Пиксели*Кадры) : 0.357
Размер потока : 3,89 Гбайт (92%)
Default : Да
Forced : Нет
Основные цвета : BT.709-5, BT.1361, IEC 61966-2-4, SMPTE RP177
Характеристики трансфера : BT.709-5, BT.1361
Коэффициенты матрицы : BT.709-5, BT.1361, IEC 61966-2-4 709, SMPTE RP177
Аудио
Идентификатор : 2
Формат : AC-3
Формат/Информация : Audio Coding 3
Расширение режима : CM (complete main)
Параметр Endianness формата : Big
Идентификатор кодека : A_AC3
Продолжительность : 1 ч. 36 м.
Вид битрейта : Постоянный
Битрейт : 384 Кбит/сек
Каналы : 6 каналов
Расположение каналов : Front: L C R, Side: L R, LFE
Частота : 48,0 КГц
Битовая глубина : 16 бит
Метод сжатия : С потерями
Размер потока : 264 Мбайт (6%)
Язык : Portuguese
Default : Да
Forced : Нет
Текст #1
Идентификатор : 3
Формат : UTF-8
Идентификатор кодека : S_TEXT/UTF8
Идентификатор кодека/Информация : UTF-8 Plain Text
Язык : Russian
Default : Да
Forced : Нет
Текст #2
Идентификатор : 4
Формат : UTF-8
Идентификатор кодека : S_TEXT/UTF8
Идентификатор кодека/Информация : UTF-8 Plain Text
Язык : English
Default : Нет
Forced : Нет
Меню
00:00:00.000 : :Chapter 1
00:09:04.043 : :Chapter 2
00:21:33.000 : :Chapter 3
00:34:29.067 : :Chapter 4
00:45:27.057 : :Chapter 5
00:52:41.032 : :Chapter 6
01:03:56.040 : :Chapter 7
01:14:06.024 : :Chapter 8
01:22:37.035 : :Chapter 9
01:32:12.068 : :Chapter 10

Скриншоты


_________________

HUNTER

Стаж:
4 года 4 месяца
Сообщений:
56733

Репутация: 101

[+] [-]
Вне форума [Профиль] [ЛС]

почему проверено?

_________________
Показать сообщения:    

Текущее время: Сегодня 01:22

Часовой пояс: GMT



Вы не можете начинать темы
Вы не можете отвечать на сообщения
Вы не можете редактировать свои сообщения
Вы не можете удалять свои сообщения
Вы не можете голосовать в опросах
Вы не можете прикреплять файлы к сообщениям
Вы не можете скачивать файлы