Важное объявление!
У Нас Все раздачи мультитрекерные, при нуле пиров в релизах, можете смело вставать на закачку!
 
Автор Сообщение

HUNTER

Стаж:
4 года 4 месяца
Сообщений:
56765

Репутация: 101

[+] [-]
Вне форума [Профиль] [ЛС]

Дорога, дорога домой / На заднем сиденье / The Way Way Back
Страна: США
Студия: Sycamore Pictures, Walsh Company, OddLot Entertainment
Жанр: комедия, драма
Год выпуска: 2013
Продолжительность: 01:43:28
Перевод 1: Профессиональный (двухголосый закадровый) OzzTV (И. Воронова, А. Серёгин)
Перевод 2: Любительский (многоголосый закадровый) Paradox (И. Грачева, А. Шухарт, М. Максимов)
Перевод 3: Одноголосый закадровый Andi
Cубтитры: русские 1 (El Brujo), русские 2 (Notabenoid - исправленные), английские (SDH)
Оригинальная аудиодорожка: английский
Режиссер: Нат Факсон / Nat Faxon, Джим Рэш / Jim Rash
В ролях: Стив Карелл, Тони Коллетт, Сэм Рокуэлл, Эллисон Дженни, Аманда Пит, Анна-София Робб, Майя Рудольф, Лиам Джеймс, Роб Кордри, Ривер Агирр, Зои Левин, Нат Факсон, Джим Рэш и др.
Описание: Данкан - замкнутый подросток с разведенными родителями. Вместо летних каникул с отцом, он вынужден провести их с матерью и ее новым мужчиной в доме на побережье. И тут можно ненавидеть весь мир, а можно, например, разглядеть в этом мраке симпатичную соседку, эксцентричного и жизнерадостного работника близлежащего аквапарка, новых интересных людей вокруг, и самому открыться себе с новой стороны. И тогда, может быть, поездка на заднем сидении жизни начнет видеться уже не такой безысходной.
IMDB: 7.5/10
Сэмпл: Скачать
Тип релиза: BDRemux 1080p
Контейнер: MKV
Источник: The Way Way Back 2013 BluRay 1080p AVC DTS-HD MA 5.1-CHDBits
Видео: MPEG-4 AVC / 1920x1080p / 30639 kbps / 23.976 fps / 1.85:1 / High Profile 4.1
Аудио 1: Русский, DTS-HD Master Audio / 5.1 / 48 kHz / 3650 kbps / 24-bit (DTS Core: 5.1 / 48 kHz / 1509 kbps / 24-bit) (OzzTV)
Аудио 2: Английский, DTS-HD Master Audio / 5.1 / 48 kHz / 3650 kbps / 24-bit (DTS Core: 5.1 / 48 kHz / 1509 kbps / 24-bit) (Original)
Аудио 3: Русский, AC3 / 5.1 / 48 kHz / 384 kbps / 16-bit / DN -4dB (Paradox)
Аудио 4: Русский, AC3 / 5.1 / 48 kHz / 384 kbps / 16-bit / DN -4dB (Andi)
Формат субтитров: подключаемые (SRT)
Навигация по главам: есть

MediaInfo

General
Unique ID : 187057517765752460974923811740268771543 (0x8CB9F7ACB07BFA38A72588FC780638D7)
Complete name : D:\The.Way.Way.Back.2013.Rus.Eng.BDRemux.mkv
Format : Matroska
Format version : Version 2
File size : 27.4 GiB
Duration : 1h 43mn
Overall bit rate mode : Variable
Overall bit rate : 38.0 Mbps
Movie name : The Way Way Back (2013)
Encoded date : UTC 2014-02-19 14:04:40
Writing application : mkvmerge v5.8.0 ('No Sleep / Pillow') built on Sep 2 2012 15:37:04
Writing library : libebml v1.2.3 + libmatroska v1.3.0
Video
ID : 1
Format : AVC
Format/Info : Advanced Video Codec
Format profile : High@L4.1
Format settings, CABAC : Yes
Format settings, ReFrames : 4 frames
Codec ID : V_MPEG4/ISO/AVC
Duration : 1h 43mn
Bit rate mode : Variable
Bit rate : 33.3 Mbps
Maximum bit rate : 32.0 Mbps
Width : 1 920 pixels
Height : 1 080 pixels
Display aspect ratio : 16:9
Frame rate mode : Constant
Frame rate : 23.976 fps
Color space : YUV
Chroma subsampling : 4:2:0
Bit depth : 8 bits
Scan type : Progressive
Bits/(Pixel*Frame) : 0.670
Stream size : 24.1 GiB (88%)
Title : CHDBits
Language : English
Default : Yes
Forced : No
Audio #1
ID : 2
Format : DTS
Format/Info : Digital Theater Systems
Format profile : MA / Core
Codec ID : A_DTS
Duration : 1h 43mn
Bit rate mode : Variable
Bit rate : 1 561 Kbps / 1 510 Kbps
Channel(s) : 6 channels
Channel positions : Front: L C R, Side: L R, LFE
Sampling rate : 48.0 KHz
Bit depth : 24 bits
Compression mode : Lossless / Lossy
Title : DVO OzzTV
Language : Russian
Default : Yes
Forced : No
Audio #2
ID : 3
Format : DTS
Format/Info : Digital Theater Systems
Format profile : MA / Core
Codec ID : A_DTS
Duration : 1h 43mn
Bit rate mode : Variable
Bit rate : 1 561 Kbps / 1 510 Kbps
Channel(s) : 6 channels
Channel positions : Front: L C R, Side: L R, LFE
Sampling rate : 48.0 KHz
Bit depth : 24 bits
Compression mode : Lossless / Lossy
Title : Original
Language : English
Default : No
Forced : No
Audio #3
ID : 4
Format : AC-3
Format/Info : Audio Coding 3
Mode extension : CM (complete main)
Format settings, Endianness : Big
Codec ID : A_AC3
Duration : 1h 43mn
Bit rate mode : Constant
Bit rate : 384 Kbps
Channel(s) : 6 channels
Channel positions : Front: L C R, Side: L R, LFE
Sampling rate : 48.0 KHz
Bit depth : 16 bits
Compression mode : Lossy
Stream size : 284 MiB (1%)
Title : MVO Paradox
Language : Russian
Default : No
Forced : No
Audio #4
ID : 5
Format : AC-3
Format/Info : Audio Coding 3
Mode extension : CM (complete main)
Format settings, Endianness : Big
Codec ID : A_AC3
Duration : 1h 43mn
Bit rate mode : Constant
Bit rate : 384 Kbps
Channel(s) : 6 channels
Channel positions : Front: L C R, Side: L R, LFE
Sampling rate : 48.0 KHz
Bit depth : 16 bits
Compression mode : Lossy
Stream size : 284 MiB (1%)
Title : VO Andi
Language : Russian
Default : No
Forced : No
Text #1
ID : 6
Format : UTF-8
Codec ID : S_TEXT/UTF8
Codec ID/Info : UTF-8 Plain Text
Title : El Brujo
Language : Russian
Default : No
Forced : No
Text #2
ID : 7
Format : UTF-8
Codec ID : S_TEXT/UTF8
Codec ID/Info : UTF-8 Plain Text
Title : Notabenoid
Language : Russian
Default : No
Forced : No
Text #3
ID : 8
Format : UTF-8
Codec ID : S_TEXT/UTF8
Codec ID/Info : UTF-8 Plain Text
Title : SDH
Language : English
Default : No
Forced : No
Menu
00:00:00.000 : en:Chapter 01
00:03:38.218 : en:Chapter 02
00:04:50.207 : en:Chapter 03
00:09:56.471 : en:Chapter 04
00:12:51.521 : en:Chapter 05
00:15:47.363 : en:Chapter 06
00:17:52.697 : en:Chapter 07
00:20:10.960 : en:Chapter 08
00:23:56.644 : en:Chapter 09
00:27:51.837 : en:Chapter 10
00:31:14.498 : en:Chapter 11
00:34:02.082 : en:Chapter 12
00:36:06.998 : en:Chapter 13
00:38:39.400 : en:Chapter 14
00:40:35.308 : en:Chapter 15
00:43:44.330 : en:Chapter 16
00:47:57.291 : en:Chapter 17
00:49:34.847 : en:Chapter 18
00:55:34.748 : en:Chapter 19
00:59:23.143 : en:Chapter 20
01:03:05.490 : en:Chapter 21
01:07:39.681 : en:Chapter 22
01:10:52.415 : en:Chapter 23
01:13:41.709 : en:Chapter 24
01:16:07.188 : en:Chapter 25
01:21:03.067 : en:Chapter 26
01:24:38.657 : en:Chapter 27
01:27:52.642 : en:Chapter 28
01:29:35.453 : en:Chapter 29
01:31:55.427 : en:Chapter 30
01:33:58.383 : en:Chapter 31
01:35:03.323 : en:Chapter 32

Скриншоты


Дополнительно

  • Перевод и озвучивание студией OzzTV осуществлены в рамках сервиса "Озвучивание" на HDClub. Спонсоры: Goblin, hdrmv12, Кириллка, fall_out_boy, xeniya_amber, amplified, Kain_Rasiel
  • В русских субтитрах от El Brujo поправлена пунктуация.

_________________
Показать сообщения:    

Текущее время: Сегодня 06:00

Часовой пояс: GMT



Вы не можете начинать темы
Вы не можете отвечать на сообщения
Вы не можете редактировать свои сообщения
Вы не можете удалять свои сообщения
Вы не можете голосовать в опросах
Вы не можете прикреплять файлы к сообщениям
Вы не можете скачивать файлы