Важное объявление!
У Нас Все раздачи мультитрекерные, при нуле пиров в релизах, можете смело вставать на закачку!
 
Автор Сообщение

Game

Стаж:
3 года 11 месяцев
Сообщений:
2074

Репутация: 107

[+] [-]
Вне форума [Профиль] [ЛС]

Дорога, дорога домой / The Way Way Back «We've All Been There»-
Страна: США
Жанр: драма, комедия
Год выпуска: 2013
Продолжительность: 01:43:28-Перевод: Любительский (многоголосый) [И. Грачева, А. Шухарт, М. Максимов]
Оригинальная аудиодорожка: английский
Субтитры: русские
Режиссер: Нат Факсон / Nat Faxon, Джим Рэш / Jim Rash
В ролях: Стив Карелл, Тони Коллетт, Эллисон Дженни, Анна-София Робб, Сэм Рокуэлл, Майя Рудольф, Лайам Джеймс, Роб Кордри, Аманда Пит, Ривер Агирр, Зои Левин, Нат Факсон-Описание: История подростка, который нашел в себе силы противостоять жестокому отчиму и снова обрел контакт с матерью. И все это благодаря дружбе, завязавшейся у героя однажды летом.-


MPAA: PG-13 - Детям до 13 лет просмотр не желателен-

Доп.Информация

Сценарий: Нат Факсон / Nat Faxon, Джим Рэш / Jim Rash
Продюсер: Том Райс / Tom Rice, Нат Факсон / Nat Faxon, Бен Нирн / Ben Nearn, Джордж Парра / George Parra, Гиги Притцкер / Gigi Pritzker
Оператор: Джон Бэйли / John Bailey
Композитор: Роб Симонсен / Rob Simonsen
Бюджет: $4 600 000
Сборы в США: $21 502 690
Сборы в мире: $23 194 796
Мировая премьера: 21 января 2013
-Файл
Качество : HDRip (Исходник BDRip 720p)
Формат : AVI
Видео кодек: XviD
Аудио кодек: AC3
Видео: XviD, 720x384 (1.875), 2002 kbps, 23,976 fps, 0,302 bpp
Аудио №1: Russian: AC3 / 5.1 / 48 kHz / 384 kbps / 16 bit
Аудио №2: English: AC3 / 5.1 / 48 kHz / 448 kbps / 16 bit
Формат субтитров: softsub (SRT)-

Media Info

General
Complete name : G:\Doroga.doroga.domoy.2013.L.HDRip_2100MB.avi
Format : AVI
Format/Info : Audio Video Interleave
Format profile : OpenDML
File size : 2.06 GiB
Duration : 1h 43mn
Overall bit rate : 2 853 Kbps
Writing application : VirtualDubMod 1.5.10.2 (build 2542/release)
Writing library : VirtualDubMod build 2542/release
Video
ID : 0
Format : MPEG-4 Visual
Format profile : Advanced Simple@L5
Format settings, BVOP : 2
Format settings, QPel : No
Format settings, GMC : No warppoints
Format settings, Matrix : Custom
Codec ID : XVID
Codec ID/Hint : XviD
Duration : 1h 43mn
Bit rate : 2 002 Kbps
Width : 720 pixels
Height : 384 pixels
Display aspect ratio : 1.875
Frame rate : 23.976 fps
Color space : YUV
Chroma subsampling : 4:2:0
Bit depth : 8 bits
Scan type : Progressive
Compression mode : Lossy
Bits/(Pixel*Frame) : 0.302
Stream size : 1.45 GiB (70%)
Writing library : XviD 64
Audio #1
ID : 1
Format : AC-3
Format/Info : Audio Coding 3
Mode extension : CM (complete main)
Codec ID : 2000
Duration : 1h 43mn
Bit rate mode : Constant
Bit rate : 384 Kbps
Channel(s) : 6 channels
Channel positions : Front: L C R, Side: L R, LFE
Sampling rate : 48.0 KHz
Bit depth : 16 bits
Compression mode : Lossy
Stream size : 284 MiB (13%)
Alignment : Split accross interleaves
Interleave, duration : 42 ms (1.00 video frame)
Interleave, preload duration : 500 ms
Audio #2
ID : 2
Format : AC-3
Format/Info : Audio Coding 3
Mode extension : CM (complete main)
Codec ID : 2000
Duration : 1h 43mn
Bit rate mode : Constant
Bit rate : 448 Kbps
Channel(s) : 6 channels
Channel positions : Front: L C R, Side: L R, LFE
Sampling rate : 48.0 KHz
Bit depth : 16 bits
Compression mode : Lossy
Stream size : 332 MiB (16%)
Alignment : Split accross interleaves
Interleave, duration : 42 ms (1.00 video frame)
Interleave, preload duration : 500 ms

Скриншот с названием фильма

Скриншоты

-
Показать сообщения:    

Текущее время: Сегодня 20:35

Часовой пояс: GMT



Вы не можете начинать темы
Вы не можете отвечать на сообщения
Вы не можете редактировать свои сообщения
Вы не можете удалять свои сообщения
Вы не можете голосовать в опросах
Вы не можете прикреплять файлы к сообщениям
Вы не можете скачивать файлы