Важное объявление!
У Нас Все раздачи мультитрекерные, при нуле пиров в релизах, можете смело вставать на закачку!
 
Автор Сообщение

HUNTER

Стаж:
4 года 4 месяца
Сообщений:
56765

Репутация: 101

[+] [-]
Вне форума [Профиль] [ЛС]

Домашний арест / House Arrest
Страна: США
Студия: Metro-Goldwyn-Mayer (MGM), Rysher Entertainment
Жанр: Комедия
Год выпуска: 1996
Продолжительность: 01:49:12
Перевод 1: Профессиональный (многоголосый закадровый) - Paramount Channel
Перевод 2: Профессиональный (многоголосый закадровый) - ТВ3
Перевод 3: Профессиональный (многоголосый закадровый) - СТС
Перевод 4: Авторский (одноголосый закадровый) - Ю.Сербин
Cубтитры: английские
Оригинальная аудиодорожка: английский
Режиссер: Гарри Уайнер / Harry Winer
В ролях: Джейми Ли Кертис, Кевин Поллак, Кайл Говард, Дженнифер Тилли, Кристофер МакДоналд, Шейла МакКарти, Уоллес Шон, Кэролайн Аарон, Муки Аризона, Расселл Харпер, Дженнифер Лав Хьюитт, Эми Сакаситц, Коллин Кэмп, Алекс Сейтц, Джош Уолфорд (Jamie Lee Curtis, Kevin Pollak, Kyle Howard, Jennifer Tilly, Christopher McDonald, Sheila McCarthy, Wallace Shawn, Caroline Aaron, Mooky Arizona, Russel Harper, Jennifer Love Hewitt, Amy Sakasitz, Colleen Camp, Alex Seitz, Josh Wolford)
Описание: Брат с сестрой узнали, что их родители задумали разойтись. По совету одноклассника они заманили их в подвал и заколотили дверь, объявив, что не выпустят, пока те не решат все свои проблемы. На следующий же день это стало известно всей школе, и вскоре другие подростки, у которых в семье не было полного счастья, поместили своих "предков" в тот же подвал, заменив дверь стальной решеткой... Как им это удалось и чем закончится групповая психотерапия, любители комедии узнают сами. (Иванов М.)
Доп. информация: Автор рипа - AmPirCo. Добавлены четыре русские дорожки. Многоголосый перевод Paramount Channel взят из раздачи vedigo. Перевод телеканала ТВ3 предоставлен Vitaliyonpu. Перевод телеканала СТС предоставлен Мосенька. Авторский перевод Ю.Сербина взят с лицензионной VHS от "АГМА-Paradise" (собственная оцифровка). Большое спасибо всем предоставившим материалы!
Сэмпл
Тип релиза: HDTVRip 720p
Контейнер: MKV
Видео: 1280x720p (16:9), 23,976 fps, x264, 6675 kbps
Аудио 1: Russian - Paramount (Dolby AC3, 2 ch) 192 Kbps / 48 000 Hz
Аудио 2: Russian - ТВ3 (Dolby AC3, 2 ch) 192 Kbps / 48 000 Hz
Аудио 3: Russian - СТС (Dolby AC3, 2 ch) 192 Kbps / 48 000 Hz
Аудио 4: Russian - Сербин (Dolby AC3, 2 ch) 192 Kbps / 48 000 Hz
Аудио 5: English (Dolby AC3, 6 ch) 384 Kbps / 48 000 Hz
Субтитры: English

MediaInfo

Уникальный идентификатор : 249055855354095036420599046420248251747 (0xBB5E69B8156696EB9406AB96D86DCD63)
Полное имя : House.Arrest.(1996).HDTVRip.720p.x264.RUS.ENG.AC3.mkv
Формат : Matroska
Версия формата : Version 4 / Version 2
Размер файла : 5,97 Гбайт
Продолжительность : 1 ч. 49 м.
Общий поток : 7830 Кбит/сек
Название фильма : House Arrest (1996) HDTVRip 720p
Дата кодирования : UTC 2014-11-26 18:24:14
Программа кодирования : mkvmerge v7.2.0 ('On Every Street') 32bit built on Sep 13 2014 15:42:11
Библиотека кодирования : libebml v1.3.0 + libmatroska v1.4.1
DURATION : 01:43:24.292000000
NUMBER_OF_FRAMES : 1428
NUMBER_OF_BYTES : 50005
_STATISTICS_WRITING_APP : mkvmerge v7.2.0 ('On Every Street') 32bit built on Sep 13 2014 15:42:11
_STATISTICS_WRITING_DATE_UTC : 2014-11-26 18:24:14
_STATISTICS_TAGS : BPS DURATION NUMBER_OF_FRAMES NUMBER_OF_BYTES
Видео
Идентификатор : 1
Формат : AVC
Формат/Информация : Advanced Video Codec
Профиль формата : High@L4.1
Параметр CABAC формата : Да
Параметр ReFrames формата : 9 кадров
Идентификатор кодека : V_MPEG4/ISO/AVC
Продолжительность : 1 ч. 49 м.
Битрейт : 6675 Кбит/сек
Ширина : 1280 пикселей
Высота : 720 пикселей
Соотношение сторон : 16:9
Режим частоты кадров : Постоянный
Частота кадров : 23,976 кадра/сек
Цветовое пространство : YUV
Субдискретизация насыщенности : 4:2:0
Битовая глубина : 8 бит
Тип развёртки : Прогрессивная
Бит/(Пиксели*Кадры) : 0.302
Размер потока : 4,97 Гбайт (83%)
Библиотека кодирования : x264 core 142 r2431 ac76440
Настройки программы : cabac=1 / ref=9 / deblock=1:-2:-2 / analyse=0x3:0x113 / me=umh / subme=9 / psy=1 / psy_rd=1.10:0.00 / mixed_ref=1 / me_range=32 / chroma_me=1 / trellis=2 / 8x8dct=1 / cqm=0 / deadzone=21,11 / fast_pskip=0 / chroma_qp_offset=-2 / threads=6 / lookahead_threads=1 / sliced_threads=0 / nr=0 / decimate=1 / interlaced=0 / bluray_compat=0 / constrained_intra=0 / bframes=6 / b_pyramid=2 / b_adapt=2 / b_bias=0 / direct=3 / weightb=1 / open_gop=0 / weightp=2 / keyint=240 / keyint_min=23 / scenecut=40 / intra_refresh=0 / rc_lookahead=50 / rc=2pass / mbtree=0 / bitrate=6675 / ratetol=1.0 / qcomp=0.60 / qpmin=10 / qpmax=51 / qpstep=4 / cplxblur=20.0 / qblur=0.5 / vbv_maxrate=62500 / vbv_bufsize=78125 / nal_hrd=none / filler=0 / ip_ratio=1.40 / pb_ratio=1.30 / aq=1:1.00
Язык : English
Default : Да
Forced : Нет
DURATION : 01:49:12.129000000
NUMBER_OF_FRAMES : 157094
NUMBER_OF_BYTES : 5466708829
_STATISTICS_WRITING_APP : mkvmerge v7.2.0 ('On Every Street') 32bit built on Sep 13 2014 15:42:11
_STATISTICS_WRITING_DATE_UTC : 2014-11-26 18:24:14
_STATISTICS_TAGS : BPS DURATION NUMBER_OF_FRAMES NUMBER_OF_BYTES
Аудио #1
Идентификатор : 2
Формат : AC-3
Формат/Информация : Audio Coding 3
Расширение режима : CM (complete main)
Параметр Endianness формата : Big
Идентификатор кодека : A_AC3
Продолжительность : 1 ч. 49 м.
Вид битрейта : Постоянный
Битрейт : 192 Кбит/сек
Каналы : 2 канала
Расположение каналов : Front: L R
Частота : 48,0 КГц
Битовая глубина : 16 бит
Метод сжатия : С потерями
Размер потока : 150 Мбайт (2%)
Заголовок : Paramount
Язык : Russian
Default : Да
Forced : Нет
Аудио #2
Идентификатор : 3
Формат : AC-3
Формат/Информация : Audio Coding 3
Расширение режима : CM (complete main)
Параметр Endianness формата : Big
Идентификатор кодека : A_AC3
Продолжительность : 1 ч. 49 м.
Вид битрейта : Постоянный
Битрейт : 192 Кбит/сек
Каналы : 2 канала
Расположение каналов : Front: L R
Частота : 48,0 КГц
Битовая глубина : 16 бит
Метод сжатия : С потерями
Размер потока : 150 Мбайт (2%)
Заголовок : ТВ3
Язык : Russian
Default : Нет
Forced : Нет
Аудио #3
Идентификатор : 4
Формат : AC-3
Формат/Информация : Audio Coding 3
Расширение режима : CM (complete main)
Параметр Endianness формата : Big
Идентификатор кодека : A_AC3
Продолжительность : 1 ч. 49 м.
Вид битрейта : Постоянный
Битрейт : 192 Кбит/сек
Каналы : 2 канала
Расположение каналов : Front: L R
Частота : 48,0 КГц
Битовая глубина : 16 бит
Метод сжатия : С потерями
Размер потока : 150 Мбайт (2%)
Заголовок : СТС
Язык : Russian
Default : Нет
Forced : Нет
Аудио #4
Идентификатор : 5
Формат : AC-3
Формат/Информация : Audio Coding 3
Расширение режима : CM (complete main)
Параметр Endianness формата : Big
Идентификатор кодека : A_AC3
Продолжительность : 1 ч. 49 м.
Вид битрейта : Постоянный
Битрейт : 192 Кбит/сек
Каналы : 2 канала
Расположение каналов : Front: L R
Частота : 48,0 КГц
Битовая глубина : 16 бит
Метод сжатия : С потерями
Размер потока : 150 Мбайт (2%)
Заголовок : Сербин
Язык : Russian
Default : Нет
Forced : Нет
Аудио #5
Идентификатор : 6
Формат : AC-3
Формат/Информация : Audio Coding 3
Расширение режима : CM (complete main)
Параметр Endianness формата : Big
Идентификатор кодека : A_AC3
Продолжительность : 1 ч. 49 м.
Вид битрейта : Постоянный
Битрейт : 384 Кбит/сек
Каналы : 6 каналов
Расположение каналов : Front: L C R, Side: L R, LFE
Частота : 48,0 КГц
Битовая глубина : 16 бит
Метод сжатия : С потерями
Размер потока : 300 Мбайт (5%)
Заголовок : Original
Язык : English
Default : Нет
Forced : Нет
Текст
Идентификатор : 7
Формат : UTF-8
Идентификатор кодека : S_TEXT/UTF8
Идентификатор кодека/Информация : UTF-8 Plain Text
Язык : English
Default : Нет
Forced : Нет

Скриншоты


_________________
Показать сообщения:    

Текущее время: Сегодня 06:41

Часовой пояс: GMT



Вы не можете начинать темы
Вы не можете отвечать на сообщения
Вы не можете редактировать свои сообщения
Вы не можете удалять свои сообщения
Вы не можете голосовать в опросах
Вы не можете прикреплять файлы к сообщениям
Вы не можете скачивать файлы