Важное объявление!
У Нас Все раздачи мультитрекерные, при нуле пиров в релизах, можете смело вставать на закачку!
 
Автор Сообщение

HUNTER

Стаж:
4 года 4 месяца
Сообщений:
56772

Репутация: 101

[+] [-]
Вне форума [Профиль] [ЛС]

-Дом на Греческой улице / Дом в женском университетском городке / The House on Sorority Row-Страна: США
Жанр: ужасы, слэшер
Год выпуска: 1983
Продолжительность: 01:31:53-Перевод: Профессиональный (двухголосый закадровый)
Cубтитры: нет
Оригинальная аудиодорожка: английский-Режиссер: Марк Росман / Mark Rosman
В ролях: Эйлин Дэвидсон, Кейт Макнил, Лоис Келсо Хант, Харли Джейн Козак, Майкл Кун, Кристофер Лоуренс-Описание: В прологе картины женщина рожает ребенка у себя дома. Когда она спрашивает доктора, все ли прошло нормально, тот отрицательно качает головой. Женщина в ужасе издает страшный крик…Проходит двадцать лет. Семеро девчонок собираются устроить грандиозную вечеринку, посвященную окончанию учебного заведения. Но когда комендант общежития миссис Слейтер узнает об этом, она выгоняет девочек, сказав, что вечеринки не будет и они должны покинуть дом на следующий же день. Но девушки решают подшутить над старой женщиной, что оборачивается трагедией: миссис Слейтер погибает. Девочки перепугались не на шутку и боятся звонить в полицию, считая, что им грозит тюрьма. Поэтому они решают скинуть труп женщины в плавательный бассейн, выдав ее смерть за несчастный случай. Но это было плохой затеей, так как кто-то видел, как девчонки убили женщину, и теперь устраивает на них кровавую охоту, убивая одну за другой. Кроме этого, тело миссис Слейтер из бассейна исчезает…-Сэмпл: https://yadi.sk/i/RT8V2daYcVPY3-Тип релиза: BDRemux 1080p
Контейнер: MKV
Видео: MPEG-4 AVC Video / 18000 kbps / 1080p / 23.976 fps / 16:9 / High Profile 4.1
Аудио: Russian / Dolby Digital Audio / 2.0 / 48 kHz / 192 kbps
Аудио 2: English / DTS-HD Master Audio / 2.0 / 48 kHz / 1824 kbps / 24-bit (DTS Core: 2.0 / 48 kHz / 1509 kbps / 24-bit)
Аудио 3: English / Dolby Digital Audio / 2.0 / 48 kHz / 192 kbps | Audio Commentary with writer/director Mark Rosman, actresses Kate McNeil, and Eileen Davidson
Аудио 4: English / Dolby Digital Audio / 2.0 / 48 kHz / 192 kbps | Audio Commentary with host Katarina Leigh Waters and writer/director Mark Rosman

MI

ОбщееУникальный идентификатор : 178810243731327713031597472586020269927 (0x868599ABB913D5A682182F92F481AF67)Полное имя : Z:\+ Слэшеры\Дом на греческой улице (1983. The House on Sorority Row).mkvФормат : MatroskaВерсия формата : Version 2Размер файла : 13,1 ГбайтПродолжительность : 1 ч. 31 м.Режим общего битрейта : ПеременныйОбщий поток : 20,4 Мбит/секНазвание фильма : Release for RuTrackerДата кодирования : UTC 2014-11-04 20:34:10Программа кодирования : mkvmerge v4.9.1 ('Ich will') сборка от Jul 11 2011 23:53:15Библиотека кодирования : libebml v1.2.1 + libmatroska v1.1.1
ВидеоИдентификатор : 1Формат : AVCФормат/Информация : Advanced Video CodecПрофиль формата : High@L4.1Параметр CABAC формата : ДаПараметр ReFrames формата : 3 кадраПараметр GOP формата : M=3, N=12Идентификатор кодека : V_MPEG4/ISO/AVCПродолжительность : 1 ч. 31 м.Вид битрейта : ПеременныйМаксимальный битрейт : 35,0 Мбит/секШирина : 1920 пикселейВысота : 1080 пикселейСоотношение сторон : 16:9Режим частоты кадров : ПостоянныйЧастота кадров : 23,976 кадра/секСтандарт вещания : NTSCЦветовое пространство : YUVСубдискретизация насыщенности : 4:2:0Битовая глубина : 8 битТип развёртки : ПрогрессивнаяЗаголовок : THE_HOUSE_ON_SORORITY_ROW_1983_1080p_AVC_ShadowmanЯзык : EnglishDefault : ДаForced : НетОсновные цвета : BT.709Характеристики трансфера : BT.709Коэффициенты матрицы : BT.709
Аудио #1Идентификатор : 2Формат : AC-3Формат/Информация : Audio Coding 3Расширение режима : CM (complete main)Параметр Endianness формата : BigИдентификатор кодека : A_AC3Продолжительность : 1 ч. 31 м.Вид битрейта : ПостоянныйБитрейт : 192 Кбит/секКаналы : 2 каналаРасположение каналов : Front: L RЧастота : 48,0 КГцБитовая глубина : 16 битМетод сжатия : С потерямиРазмер потока : 126 Мбайт (1%)Заголовок : DVOЯзык : RussianDefault : ДаForced : Нет
Аудио #2Идентификатор : 3Формат : DTSФормат/Информация : Digital Theater SystemsПрофиль формата : MA / CoreРежим : 16Параметр Endianness формата : BigИдентификатор кодека : A_DTSПродолжительность : 1 ч. 31 м.Вид битрейта : ПеременныйБитрейт : Неизвестно / 1509 Кбит/секКаналы : 2 каналаРасположение каналов : Front: L RЧастота : 48,0 КГцБитовая глубина : 24 битМетод сжатия : Без потерь / LossyЯзык : EnglishDefault : НетForced : Нет
Аудио #3Идентификатор : 4Формат : AC-3Формат/Информация : Audio Coding 3Расширение режима : CM (complete main)Параметр Endianness формата : BigИдентификатор кодека : A_AC3Продолжительность : 1 ч. 31 м.Вид битрейта : ПостоянныйБитрейт : 192 Кбит/секКаналы : 2 каналаРасположение каналов : Front: L RЧастота : 48,0 КГцБитовая глубина : 16 битМетод сжатия : С потерямиРазмер потока : 126 Мбайт (1%)Заголовок : Commentary with writer/director Mark Rosman, actresses Kate McNeil, and Eileen DavidsonЯзык : EnglishDefault : НетForced : Нет
Аудио #4Идентификатор : 5Формат : AC-3Формат/Информация : Audio Coding 3Расширение режима : CM (complete main)Параметр Endianness формата : BigИдентификатор кодека : A_AC3Продолжительность : 1 ч. 31 м.Вид битрейта : ПостоянныйБитрейт : 192 Кбит/секКаналы : 2 каналаРасположение каналов : Front: L RЧастота : 48,0 КГцБитовая глубина : 16 битМетод сжатия : С потерямиРазмер потока : 126 Мбайт (1%)Заголовок : Commentary with host Katarina Leigh Waters and writer/director Mark RosmanЯзык : EnglishDefault : НетForced : Нет
Меню00:00:00.000 : en:00:00:00.00000:08:18.498 : en:00:08:18.49800:15:03.903 : en:00:15:03.90300:19:29.168 : en:00:19:29.16800:24:41.480 : en:00:24:41.48000:29:49.788 : en:00:29:49.78800:35:52.150 : en:00:35:52.15000:44:41.679 : en:00:44:41.67900:51:41.098 : en:00:51:41.09800:57:53.470 : en:00:57:53.47001:04:41.878 : en:01:04:41.87801:15:54.550 : en:01:15:54.55001:21:51.907 : en:01:21:51.90701:28:40.315 : en:01:28:40.315

Скриншоты



Зеркало


Цитата:
Цитата:

  • За оригинальный диск спасибо Shadowman
  • Русский звук отсюда.

_________________
Показать сообщения:    

Текущее время: Сегодня 10:00

Часовой пояс: GMT



Вы не можете начинать темы
Вы не можете отвечать на сообщения
Вы не можете редактировать свои сообщения
Вы не можете удалять свои сообщения
Вы не можете голосовать в опросах
Вы не можете прикреплять файлы к сообщениям
Вы не можете скачивать файлы