Важное объявление!
У Нас Все раздачи мультитрекерные, при нуле пиров в релизах, можете смело вставать на закачку!
 
Автор Сообщение

HUNTER

Стаж:
4 года 4 месяца
Сообщений:
56848

Репутация: 101

[+] [-]
Вне форума [Профиль] [ЛС]

Дом-монстр / Monster House«Этот дом... живой»-
Страна: США
Жанр: фэнтези, комедия
Продолжительность: 01:30:38
Год выпуска: 2006
Перевод: Профессиональный (дублированный)
Перевод 2: Авторский (одноголосый закадровый) Ю.Сербин
Перевод 3: Профессиональный (двухголосый закадровый) П.Гланц и И.Королёва Отдельно
Русские субтитры: есть
Режиссёр: Джил Кенан / Gil Kenan
Исполнительный продюсер: Стивен Спилберг / Steven Spielberg, Роберт Земекис / Robert Zemeckis
Роли озвучивали: Райан Ньюман, Стив Бушеми, Митчел Муссо, Кэтрин О’Хара, Фред Уиллард, Сэм Лернер, Вуди Шульц, Йен МакКоннел, Мэгги Джилленхол, Джейсон Ли
Роли дублировали: Ксения Каталымова, Борис Улитин, Дмитрий Маслов, Валерий Соловьев, Елизавета Захарьева-ОписаниеХорошо быть мальчишкой. Каждый день, как вся жизнь! Столько всего вокруг: девчонки, мороженое, драки, учебники, футбол. Насыщенный день, короче, получается. А вот если ты однажды обнаружил, что дом, который стоит по соседству с домом твоей семьи — вовсе не дом… А попросту говоря — монстр. Чудовище, в общем. Такие дела.
Ну вот, история эта про то, как три приятеля — ДиДжей, Чёдер и Дженни — обнаружили, что дом, находящийся неподалеку, самый настоящий монстр. Только никто им не верил. Мало ли, чего навыдумывают дети… Только зря они так. Ребята их предупреждали…
-Сэмпл

IMDb: 6.70 (56 642)
Качество: BDRip-AVC BDRemux 1080p -Azureus-
Формат: MKV
Видео: AVC 2568 Kbps Aspect 1152 x 480 (2.400) 23.976 fps
Аудио: AC-3 384 Kbps 6 channels, 48.0 KHz Rus DUB
Аудио 2: AC-3 384 Kbps 6 channels, 48.0 KHz AVO Ю.Сербин
Аудио 3: AC-3 384 Kbps 6 channels, 48.0 KHz Eng
Аудио 4: AC-3 384 Kbps 6 channels, 48.0 KHz DVO П.Гланц и И.Королёва Отдельно
Субтитры: Rus, Ukr, Eng

MI | Log

Log
x264 [info]: frame I:882 Avg QP:15.87 size: 58101
x264 [info]: frame P:30431 Avg QP:17.61 size: 26727
x264 [info]: frame B:99079 Avg QP:19.44 size: 9391
x264 [info]: consecutive B-frames: 3.1% 4.7% 9.6% 17.2% 12.5% 48.3% 2.1% 0.3% 0.6% 0.3% 0.3% 0.4% 0.8%
x264 [info]: mb I I16..4: 8.4% 80.1% 11.5%
x264 [info]: mb P I16..4: 1.0% 16.0% 1.4% P16..4: 27.5% 32.5% 11.6% 1.2% 0.1% skip: 8.8%
x264 [info]: mb B I16..4: 0.1% 1.3% 0.1% B16..8: 32.2% 21.7% 3.5% direct: 5.7% skip:35.4% L0:42.8% L1:44.8% BI:12.5%
x264 [info]: 8x8 transform intra:85.3% inter:65.3%
x264 [info]: coded y,uvDC,uvAC intra: 88.2% 94.2% 86.1% inter: 26.0% 30.3% 10.8%
x264 [info]: i16 v,h,dc,p: 51% 13% 8% 28%
x264 [info]: i8 v,h,dc,ddl,ddr,vr,hd,vl,hu: 8% 7% 7% 10% 14% 13% 13% 13% 14%
x264 [info]: i4 v,h,dc,ddl,ddr,vr,hd,vl,hu: 9% 7% 6% 9% 16% 15% 14% 11% 13%
x264 [info]: i8c dc,h,v,p: 49% 20% 15% 16%
x264 [info]: Weighted P-Frames: Y:4.0% UV:3.0%
x264 [info]: ref P L0: 47.5% 9.6% 17.9% 6.0% 5.2% 3.5% 3.2% 1.6% 1.6% 1.3% 1.3% 1.1% 0.2% 0.0%
x264 [info]: ref B L0: 75.5% 10.7% 4.8% 2.5% 1.9% 1.5% 1.1% 0.7% 0.6% 0.4% 0.2%
x264 [info]: ref B L1: 94.5% 5.5%
x264 [info]: kb/s:2640.58
x264 [total]: encoded 130392 frames, 9.48 fps, 2640.58 kb/s, duration 3:49:17.03
Format                                   : MatroskaFormat version                           : Version 4 / Version 2File size                                : 2.40 GiBDuration                                 : 1h 30mnOverall bit rate                         : 3 795 KbpsEncoded date                             : UTC 2014-12-02 20:17:19Writing application                      : mkvmerge v6.7.0 ('Back to the Ground') 32bit built on Jan  8 2014 15:03:17Writing library                          : libebml v1.3.0 + libmatroska v1.4.1
VideoID : 1Format : AVCFormat/Info : Advanced Video CodecFormat profile : High@L4.1Format settings, CABAC : YesFormat settings, ReFrames : 12 framesCodec ID : V_MPEG4/ISO/AVCDuration : 1h 30mnBit rate : 2 568 KbpsWidth : 1 152 pixelsHeight : 480 pixelsDisplay aspect ratio : 2.40:1Frame rate mode : ConstantFrame rate : 23.976 fpsColor space : YUVChroma subsampling : 4:2:0Bit depth : 8 bitsScan type : ProgressiveBits/(Pixel*Frame) : 0.194Stream size : 1.63 GiB (68%)Title : Monster House [rutracker.org]Writing library : x264 core 142 r2453kMod ea0ca51Encoding settings : cabac=1 / ref=12 / deblock=1:-2:-1 / analyse=0x3:0x133 / me=umh / subme=11 / psy=1 / fade_compensate=0.00 / psy_rd=1.00:0.05 / mixed_ref=1 / me_range=32 / chroma_me=1 / trellis=2 / 8x8dct=1 / cqm=0 / deadzone=21,11 / fast_pskip=0 / chroma_qp_offset=-3 / threads=12 / lookahead_threads=3 / sliced_threads=0 / nr=0 / decimate=1 / interlaced=0 / bluray_compat=0 / constrained_intra=0 / fgo=0 / bframes=12 / b_pyramid=2 / b_adapt=2 / b_bias=0 / direct=1 / weightb=1 / open_gop=0 / weightp=2 / keyint=250 / keyint_min=23 / scenecut=40 / intra_refresh=0 / rc_lookahead=60 / rc=crf / mbtree=0 / crf=18.6000 / qcomp=0.60 / qpmin=0 / qpmax=69 / qpstep=4 / vbv_maxrate=50000 / vbv_bufsize=62500 / crf_max=0.0 / nal_hrd=none / filler=0 / ip_ratio=1.40 / pb_ratio=1.30 / aq=3:0.90Language : EnglishDefault : YesForced : No
Audio #1ID : 2Format : AC-3Format/Info : Audio Coding 3Mode extension : CM (complete main)Format settings, Endianness : BigCodec ID : A_AC3Duration : 1h 30mnBit rate mode : ConstantBit rate : 384 KbpsChannel(s) : 6 channelsChannel positions : Front: L C R, Side: L R, LFESampling rate : 48.0 KHzBit depth : 16 bitsCompression mode : LossyStream size : 249 MiB (10%)Title : DUBLanguage : RussianDefault : YesForced : No
Audio #2ID : 3Format : AC-3Format/Info : Audio Coding 3Mode extension : CM (complete main)Format settings, Endianness : BigCodec ID : A_AC3Duration : 1h 30mnBit rate mode : ConstantBit rate : 384 KbpsChannel(s) : 6 channelsChannel positions : Front: L C R, Side: L R, LFESampling rate : 48.0 KHzBit depth : 16 bitsCompression mode : LossyStream size : 249 MiB (10%)Title : AVO [U. Serbin]Language : RussianDefault : NoForced : No
Audio #3ID : 4Format : AC-3Format/Info : Audio Coding 3Mode extension : CM (complete main)Format settings, Endianness : BigCodec ID : A_AC3Duration : 1h 30mnBit rate mode : ConstantBit rate : 384 KbpsChannel(s) : 6 channelsChannel positions : Front: L C R, Side: L R, LFESampling rate : 48.0 KHzBit depth : 16 bitsCompression mode : LossyStream size : 249 MiB (10%)Title : OriginalLanguage : EnglishDefault : NoForced : No
Text #1ID : 5Format : UTF-8Codec ID : S_TEXT/UTF8Codec ID/Info : UTF-8 Plain TextLanguage : RussianDefault : NoForced : No
Text #2ID : 6Format : UTF-8Codec ID : S_TEXT/UTF8Codec ID/Info : UTF-8 Plain TextLanguage : UkrainianDefault : NoForced : No
Text #3ID : 7Format : UTF-8Codec ID : S_TEXT/UTF8Codec ID/Info : UTF-8 Plain TextLanguage : EnglishDefault : NoForced : No
Menu00:00:00.000 : en:00:00:00.00000:03:23.620 : en:00:03:23.62000:06:35.020 : en:00:06:35.02000:10:27.377 : en:00:10:27.37700:13:36.274 : en:00:13:36.27400:16:45.755 : en:00:16:45.75500:20:24.223 : en:00:20:24.22300:23:59.688 : en:00:23:59.68800:26:36.553 : en:00:26:36.55300:30:10.851 : en:00:30:10.85100:33:04.274 : en:00:33:04.27400:36:03.328 : en:00:36:03.32800:39:17.397 : en:00:39:17.39700:42:31.382 : en:00:42:31.38200:46:21.028 : en:00:46:21.02800:49:50.821 : en:00:49:50.82100:53:41.468 : en:00:53:41.46800:56:45.902 : en:00:56:45.90201:00:23.411 : en:01:00:23.41101:03:37.522 : en:01:03:37.52201:05:41.354 : en:01:05:41.35401:08:35.445 : en:01:08:35.44501:11:56.562 : en:01:11:56.56201:13:02.461 : en:01:13:02.46101:15:49.879 : en:01:15:49.87901:16:55.778 : en:01:16:55.77801:17:28.269 : en:01:17:28.26901:20:50.262 : en:01:20:50.262

Скриншоты | Rip vs Source

Source

_________________
Показать сообщения:    

Текущее время: Сегодня 00:00

Часовой пояс: GMT



Вы не можете начинать темы
Вы не можете отвечать на сообщения
Вы не можете редактировать свои сообщения
Вы не можете удалять свои сообщения
Вы не можете голосовать в опросах
Вы не можете прикреплять файлы к сообщениям
Вы не можете скачивать файлы
Наши партнеры: интернет магазин Ивановского трикотажа textilla.ru