Важное объявление!
У Нас Все раздачи мультитрекерные, при нуле пиров в релизах, можете смело вставать на закачку!
 
Автор Сообщение

HUNTER

Стаж:
4 года 4 месяца
Сообщений:
56749

Репутация: 101

[+] [-]
Вне форума [Профиль] [ЛС]

Дом-монстр
Monster House
«Этот дом... живой»
Год выпуска: 2006
Страна: США
Жанр: мультфильм, фэнтези, комедия, детектив, семейный
Продолжительность: 01:30:38
Перевод:
Профессиональный (Дублированный)
Профессиональный (Двухголосый закадровый) - Tycoon
Профессиональный (Двухголосый закадровый) - П.Гланц и И.Королёва
Авторский (Одноголосый закадровый) - Ю.Сербин
русские субтитры: есть-Режиссёр: Джил Кенан : Gil Kenan-Роли озвучивали: Райан Ньюман, Стив Бушеми, Митчел Муссо, Кэтрин О’Хара, Фред Уиллард, Сэм Лернер, Вуди Шульц, Йен МакКоннел, Мэгги Джилленхол, Джейсон Ли
Роли дублировали: Ксения Каталымова, Борис Улитин, Дмитрий Маслов, Валерий Соловьев, Елизавета Захарьева-Описание: Хорошо быть мальчишкой. Каждый день, как вся жизнь! Столько всего вокруг: девчонки, мороженое, драки, учебники, футбол. Насыщенный день, короче, получается. А вот если ты однажды обнаружил, что дом, который стоит по соседству с домом твоей семьи — вовсе не дом… А попросту говоря — монстр. Чудовище, в общем. Такие дела.
Ну вот, история эта про то, как три приятеля — ДиДжей, Чёдер и Дженни — обнаружили, что дом, находящийся неподалеку, самый настоящий монстр. Только никто им не верил. Мало ли, чего навыдумывают дети… Только зря они так. Ребята их предупреждали…- релиз: -- Перевод Юрия Сербина доступен благодаря: DB73, Foots, 48ronin, пуля, Nadoelo, multmir, phaeton77, carnivale, slimka, zeleniy, safreks, Некрасов.
- Работа с BDRemux'ом и звуком -Azureus--Качество: BDRemux 1080p
Формат: MKV
Видео кодек: MPEG2
Аудио кодек: AC3 : DTS MA
Видео: 1980x1080 , 23,976 fps, ~40,0 Мbps avg
Аудио #1: [RUS] 48 kHz, AC3 Dolby Digital, 3/2 (L,C,R,l,r) + LFE ch, ~448 kbps - DUB
Аудио #2: [RUS] 48 kHz, AC3 Dolby Digital, 3/2 (L,C,R,l,r) + LFE ch, ~448 kbps - DVO /Tycoon/
Аудио #3: [RUS] DTS-HD MA 5.1 / 48 kHz / 2231 kbps / 16-bit (DTS Core: 5.1 / 48 kHz / 1509 kbps / 16-bit) - DVO /П.Гланц и И.Королёва/
Аудио #4: [RUS] DTS-HD MA 5.1 / 48 kHz / 2284 kbps / 16-bit (DTS Core: 5.1 / 48 kHz / 1509 kbps / 16-bit) - AVO /Ю.Сербин/
Аудио #5: [ENG] DTS-HD MA 5.1 / 48 kHz / 2247 kbps / 16-bit (DTS Core: 5.1 / 48 kHz / 1509 kbps / 16-bit)
Аудио #6: [ENG] 48 kHz, AC3 Dolby Digital, 2/0 (L,R) ch, ~192 kbps kbps avg - Comment
субтитры: русские, украинские, английские
навигация по главам: 28 глав (не именных)

MediaInfo

Общее
Уникальный идентификатор : 200887011225587562654221016812001301993 (0x97216E585C6877848560F895C87215E9)
Полное имя : D:\Im\Дом-монстр\Monster House.2006.BDRemux 1080p.mkv
Формат : Matroska
Версия формата : Version 4 / Version 2
Размер файла : 17,1 Гбайт
Продолжительность : 1 ч. 30 м.
Режим общего битрейта : Переменный
Общий поток : 27,0 Мбит/сек
Название фильма : Monster House.2006.BDRemux 1080p -Azureus-
Дата кодирования : UTC 2014-11-28 21:56:15
Программа кодирования : mkvmerge v7.3.0 ('Nouages') 32bit built on Oct 22 2014 18:44:01
Библиотека кодирования : libebml v1.3.0 + libmatroska v1.4.1
DURATION : 01:28:11.619000000
NUMBER_OF_FRAMES : 986
NUMBER_OF_BYTES : 29402
_STATISTICS_WRITING_APP : mkvmerge v7.3.0 ('Nouages') 32bit built on Oct 22 2014 18:44:01
_STATISTICS_WRITING_DATE_UTC : 2014-11-28 21:56:15
_STATISTICS_TAGS : BPS DURATION NUMBER_OF_FRAMES NUMBER_OF_BYTES
Видео
Идентификатор : 1
Формат : MPEG Video
Версия формата : Version 2
Профиль формата : Main@High
Параметр BVOP формата : Нет
Параметр матрицы формата : Выборочная
Идентификатор кодека : V_MPEG2
Идентификатор кодека/Информация : MPEG 1 or 2 Video
Продолжительность : 1 ч. 30 м.
Вид битрейта : Переменный
Максимальный битрейт : 40,0 Мбит/сек
Ширина : 1920 пикселей
Высота : 1080 пикселей
Соотношение сторон : 16:9
Режим частоты кадров : Постоянный
Частота кадров : 23,976 кадра/сек
Цветовое пространство : YUV
Субдискретизация насыщенности : 4:2:0
Битовая глубина : 8 бит
Тип развёртки : Прогрессивная
Метод сжатия : С потерями
Временной код первого кадра : 00:59:59:00
Оригинал временного кода : Group of pictures header
Язык : English
Default : Да
Forced : Нет
Аудио #1
Идентификатор : 2
Формат : AC-3
Формат/Информация : Audio Coding 3
Расширение режима : CM (complete main)
Параметр Endianness формата : Big
Идентификатор кодека : A_AC3
Продолжительность : 1 ч. 30 м.
Вид битрейта : Постоянный
Битрейт : 448 Кбит/сек
Каналы : 6 каналов
Расположение каналов : Front: L C R, Side: L R, LFE
Частота : 48,0 КГц
Битовая глубина : 16 бит
Метод сжатия : С потерями
Размер потока : 290 Мбайт (2%)
Заголовок : DUB
Язык : Russian
Default : Да
Forced : Нет
Аудио #2
Идентификатор : 3
Формат : AC-3
Формат/Информация : Audio Coding 3
Расширение режима : CM (complete main)
Параметр Endianness формата : Big
Идентификатор кодека : A_AC3
Продолжительность : 1 ч. 30 м.
Вид битрейта : Постоянный
Битрейт : 448 Кбит/сек
Каналы : 6 каналов
Расположение каналов : Front: L C R, Side: L R, LFE
Частота : 48,0 КГц
Битовая глубина : 16 бит
Метод сжатия : С потерями
Размер потока : 290 Мбайт (2%)
Заголовок : DVO - Tycoon
Язык : Russian
Default : Нет
Forced : Нет
Аудио #3
Идентификатор : 4
Формат : DTS
Формат/Информация : Digital Theater Systems
Профиль формата : MA / Core
Режим : 16
Параметр Endianness формата : Big
Идентификатор кодека : A_DTS
Продолжительность : 1 ч. 30 м.
Вид битрейта : Переменный
Битрейт : Неизвестно / 1509 Кбит/сек
Каналы : 6 каналов
Расположение каналов : Front: L C R, Side: L R, LFE
Частота : 48,0 КГц
Битовая глубина : 16 бит
Метод сжатия : Без потерь / Lossy
Заголовок : DVO - П.Гланц и И.Королёва
Язык : Russian
Default : Нет
Forced : Нет
Аудио #4
Идентификатор : 5
Формат : DTS
Формат/Информация : Digital Theater Systems
Профиль формата : MA / Core
Режим : 16
Параметр Endianness формата : Big
Идентификатор кодека : A_DTS
Продолжительность : 1 ч. 30 м.
Вид битрейта : Переменный
Битрейт : Неизвестно / 1509 Кбит/сек
Каналы : 6 каналов
Расположение каналов : Front: L C R, Side: L R, LFE
Частота : 48,0 КГц
Битовая глубина : 16 бит
Метод сжатия : Без потерь / Lossy
Заголовок : AVO - Ю.Сербин
Язык : Russian
Default : Нет
Forced : Нет
Аудио #5
Идентификатор : 6
Формат : DTS
Формат/Информация : Digital Theater Systems
Профиль формата : MA / Core
Режим : 16
Параметр Endianness формата : Big
Идентификатор кодека : A_DTS
Продолжительность : 1 ч. 30 м.
Вид битрейта : Переменный
Битрейт : Неизвестно / 1509 Кбит/сек
Каналы : 6 каналов
Расположение каналов : Front: L C R, Side: L R, LFE
Частота : 48,0 КГц
Битовая глубина : 16 бит
Метод сжатия : Без потерь / Lossy
Заголовок : ENG
Язык : English
Default : Нет
Forced : Нет
Аудио #6
Идентификатор : 7
Формат : AC-3
Формат/Информация : Audio Coding 3
Профиль формата : Dolby Digital
Расширение режима : CM (complete main)
Параметр Endianness формата : Big
Идентификатор кодека : A_AC3
Продолжительность : 1 ч. 30 м.
Вид битрейта : Постоянный
Битрейт : 192 Кбит/сек
Каналы : 2 канала
Расположение каналов : Front: L R
Частота : 48,0 КГц
Битовая глубина : 16 бит
Метод сжатия : С потерями
Размер потока : 124 Мбайт (1%)
Заголовок : ENG - coment
Язык : English
Default : Нет
Forced : Нет
Текст #1
Идентификатор : 8
Формат : UTF-8
Идентификатор кодека : S_TEXT/UTF8
Идентификатор кодека/Информация : UTF-8 Plain Text
Заголовок : Rus Sub
Язык : Russian
Default : Нет
Forced : Нет
Текст #2
Идентификатор : 9
Формат : UTF-8
Идентификатор кодека : S_TEXT/UTF8
Идентификатор кодека/Информация : UTF-8 Plain Text
Заголовок : Ukr Sub
Язык : Ukrainian
Default : Нет
Forced : Нет
Текст #3
Идентификатор : 10
Формат : UTF-8
Идентификатор кодека : S_TEXT/UTF8
Идентификатор кодека/Информация : UTF-8 Plain Text
Заголовок : Eng Sub
Язык : English
Default : Нет
Forced : Нет
Меню
00:00:00.000 : en:00:00:00.000
00:03:23.620 : en:00:03:23.620
00:06:35.020 : en:00:06:35.020
00:10:27.377 : en:00:10:27.377
00:13:36.274 : en:00:13:36.274
00:16:45.755 : en:00:16:45.755
00:20:24.223 : en:00:20:24.223
00:23:59.688 : en:00:23:59.688
00:26:36.553 : en:00:26:36.553
00:30:10.851 : en:00:30:10.851
00:33:04.274 : en:00:33:04.274
00:36:03.328 : en:00:36:03.328
00:39:17.397 : en:00:39:17.397
00:42:31.382 : en:00:42:31.382
00:46:21.028 : en:00:46:21.028
00:49:50.821 : en:00:49:50.821
00:53:41.468 : en:00:53:41.468
00:56:45.902 : en:00:56:45.902
01:00:23.411 : en:01:00:23.411
01:03:37.522 : en:01:03:37.522
01:05:41.354 : en:01:05:41.354
01:08:35.445 : en:01:08:35.445
01:11:56.562 : en:01:11:56.562
01:13:02.461 : en:01:13:02.461
01:15:49.879 : en:01:15:49.879
01:16:55.778 : en:01:16:55.778
01:17:28.269 : en:01:17:28.269
01:20:50.262 : en:01:20:50.262
____________________________________________
Стою на раздаче до 5 дней.
Просьба скачавшим как можно дольше не покидать раздачу!
ВСЕМ ПРИЯТНОГО ПРОСМОТРА!_________________________________________

_________________
Показать сообщения:    

Текущее время: Сегодня 23:40

Часовой пояс: GMT



Вы не можете начинать темы
Вы не можете отвечать на сообщения
Вы не можете редактировать свои сообщения
Вы не можете удалять свои сообщения
Вы не можете голосовать в опросах
Вы не можете прикреплять файлы к сообщениям
Вы не можете скачивать файлы