Важное объявление!
У Нас Все раздачи мультитрекерные, при нуле пиров в релизах, можете смело вставать на закачку!
 
Автор Сообщение

HUNTER

Стаж:
4 года 4 месяца
Сообщений:
56809

Репутация: 101

[+] [-]
Вне форума [Профиль] [ЛС]

Долина папоротников: Последний тропический лес / FernGully: The Last Rainforest (Билл Кройер / Bill Kroyer) [1992, мультфильм, фэнтези, приключения, семейный, BDRip] AVO (Кашкин (Первомайский)
Страна: США, Австралия
Жанр: мультфильм, фэнтези, приключения, семейный
Продолжительность: 01:15:52
Год выпуска: 1992
Перевод: Авторский (одноголосый закадровый) - Кашкин (Первомайский).
Русские субтитры: нет
Режиссёр: Билл Кройер / Bill Kroyer
Роли озвучивали: Тим Карри, Саманта Мэтис, Кристиан Слэйтер, Джонатан Уорд, Робин Уильямс, Грейс Забриски, Джеффри Блейк, Роберт Пасторелли, Чич Марин, Томми Чонг
Описание: Хексус — это злой дух. Его задача — причинять боль и страдания. Он появился из раскаленного ядра Земли и принялся уничтожать сказочно красивый тропический лес, населенный забавными мистическими существами. Только объединившись и обратив свои мольбы к магическим силам природы, жителям леса удалось заточить Хексуса в одно из деревьев.
Но скоро зверушки опять сталкиваются со смертельной опасностью, на сей раз исходящей со стороны людей, занимающихся вырубкой лесов. Своими мощными бульдозерами люди сносят подкорень вековые деревья, не подозревая о том, что в одном из них своего часа дожидается мощнейшая безжалостная сила, несущая смерть всему живому.
Доп. информация: За разрешение использовать видео - спасибо xfiles.
За синхронизацию - спасибо randos2009.
Исходник аудио и оцифровка - Aflame 300.
Качество: BDRip
Формат: AVI
Видео: 704x384 (1.83:1), 23.976 fps, XviD MPEG-4 ~2385 kbps avg, 0.37 bit/pixel
Аудио: 48 kHz, AC3 Dolby Digital, 2 ch, ~192 kbps | Александр Кашкин
Субтитры: отсутствуют
Подробные технические данные
ОбщееПолное имя : F:\Data Base\The Films\Cartoons\FernGully\FernGully-The_Last_Rainforest.1992.BDRip.rutracker.aviФормат : AVIФормат/Информация : Audio Video InterleaveРазмер файла : 1,36 ГбайтПродолжительность : 1 ч. 15 м.Общий поток : 2564 Кбит/секНазвание фильма : FernGully: The Last Rainforest (1992)Режиссёр : Bill KroyerПрограмма кодирования : VirtualDubMod 1.5.10.2 (build 2542/release)Библиотека кодирования : VirtualDub build 35491/releaseПримечание : BDRip / xfiles / РГ Мультфильмы / rutracker.org
ВидеоИдентификатор : 0Формат : MPEG-4 VisualПрофиль формата : Advanced Simple@L5Параметр BVOP формата : 2Параметр QPel формата : НетПараметр GMC формата : Без точки переходаПараметр матрицы формата : ВыборочнаяИдентификатор кодека : DX50Идентификатор кодека/Подсказка : DivX 5Продолжительность : 1 ч. 15 м.Битрейт : 2363 Кбит/секШирина : 704 пикселяВысота : 384 пикселяСоотношение сторон : 1,85:1Частота кадров : 23,976 кадра/секЦветовое пространство : YUVСубдискретизация насыщенности : 4:2:0Битовая глубина : 8 битТип развёртки : ПрогрессивнаяМетод сжатия : С потерямиБит/(Пиксели*Кадры) : 0.365Размер потока : 1,25 Гбайт (92%)Библиотека кодирования : XviD 65
АудиоИдентификатор : 1Формат : AC-3Формат/Информация : Audio Coding 3Расширение режима : CM (complete main)Параметр Endianness формата : BigИдентификатор кодека : 2000Продолжительность : 1 ч. 15 м.Вид битрейта : ПостоянныйБитрейт : 192 Кбит/секКаналы : 2 каналаРасположение каналов : Front: L RЧастота : 48,0 КГцБитовая глубина : 16 битМетод сжатия : С потерямиРазмер потока : 104 Мбайт (7%)Выравнивание : Соединение по промежуткамПродолжительность промежутка : 42 мс. (1,00 видеокадр)Время предзагрузки промежутка : 512 мс.
Скриншоты

_________________
Показать сообщения:    

Текущее время: Сегодня 17:09

Часовой пояс: GMT



Вы не можете начинать темы
Вы не можете отвечать на сообщения
Вы не можете редактировать свои сообщения
Вы не можете удалять свои сообщения
Вы не можете голосовать в опросах
Вы не можете прикреплять файлы к сообщениям
Вы не можете скачивать файлы