Важное объявление!
У Нас Все раздачи мультитрекерные, при нуле пиров в релизах, можете смело вставать на закачку!
 
Автор Сообщение

HUNTER

Стаж:
4 года 4 месяца
Сообщений:
56783

Репутация: 101

[+] [-]
Вне форума [Профиль] [ЛС]

Докторша под простыней / La dottoressa sotto il lenzuolo / Under the Sheets
Страна: Италия
Жанр: комедия
Год выпуска: 1976
Продолжительность: 01:26:11
Перевод: Andi999
Перевод2: Субтитры Антон Каптелов
Cубтитры: русские
Оригинальная аудиодорожка: итальянский
Режиссер: Джанни Мартуччи / Gianni Martucci
В ролях: Карин Шуберт, Альваро Витали, Орхидея Де Сантис, Джиджи Баллиста, Анджело Пеллегрино, Эли Галлеани, Рита Форзано, Энеа Феррарио, Энцо Андронико, Габриэлла Лепори
Описание: Три шалопая, обучающиеся в медицинском институте, являются для своих преподавателей настоящим бичом. Каких только пакостей они не устраивают для профессоров: то труп для анатомического театра подменят, то санитарами из психбольницы притворятся… Но однажды один из друзей, Сандро Сантарелли, увидел невесту профессора Чиккирини и понял, что погиб. Ну, как такая женщина могла достаться такому недотепе, каким, по мнению Сандро и его приятелей, являлся их преподаватель! Этого нельзя было допустить — и Сантарелли разрабатывает план по завоеванию красавицы. Поскольку дама его сердца является врачом, то нет пути проще, чем притвориться тяжело больным. А для студента-медика, каким бы двоечником он не был, это — пара пустяков…
Доп. информация: Русская звуковая дорожка взята с этой раздачи http://rutracker.org/forum/viewtopic.php?t=5073852 автору большое спасибо.
При пересборе двд были использованы программы:
PgcDemux - разделение компонентов диска на файлы
Muxman - мультиплексирование и авторинг DVD
VobBlanker - реавторинг DVD

Скрин завершения проекта

Бонусы: Трейлер.
Сэмпл: http://sendfile.su/1153075
Тип релиза: DVD5 (Custom)
Контейнер: DVD-Video
Видео: PAL 4:3 (720x576) VBR
Аудио: Russian (Dolby AC3, 192 Кбит/сек, 2 ch)
Аудио2: Italiano (Dolby AC3, 192 Кбит/сек, 2 ch)
Формат субтитров: prerendered (DVD/IDX+SUB)

DVDInfo

Size: 4.34 Gb ( 4 552 842 KBytes ) - DVD-5
Enabled regions: 1, 2, 3, 4, 5, 6, 7, 8
VTS_01 :
Play Length: 01:26:11
Video: PAL 4:3 (720x576) VBR
Audio:
Russian (Dolby AC3, 2 ch)
Italiano (Dolby AC3, 2 ch)
Subtitles:
Russian
VTS_02 :
Play Length: 00:00:06
Video: PAL 4:3 (720x576) VBR
VTS_03 :
Play Length: 00:02:43
Video: PAL 4:3 (720x576) VBR
Audio:
Italiano (Dolby AC3, 2 ch)
Menu Video:
PAL 4:3 (720x576) VBR
Menu Subtitles:
Not specified
Menu English Language Unit :
Root Menu

MediaInfo

Общее
Полное имя : I:\La dottoressa sotto il lenzuolo 1976\VIDEO_TS\VTS_01_1.VOB
Формат : MPEG-PS
Размер файла : 1024 Мбайт
Продолжительность : 21 м.
Режим общего битрейта : Переменный
Общий поток : 6573 Кбит/сек
Видео
Идентификатор : 224 (0xE0)
Формат : MPEG Video
Версия формата : Version 2
Профиль формата : Main@Main
Параметр BVOP формата : Да
Параметр матрицы формата : По умолчанию
Параметр GOP формата : M=3, N=13
Продолжительность : 21 м.
Вид битрейта : Переменный
Битрейт : 6058 Кбит/сек
Максимальный битрейт : 9000 Кбит/сек
Ширина : 720 пикселей
Высота : 576 пикселей
Соотношение сторон : 4:3
Частота кадров : 25,000 кадров/сек
Стандарт вещания : PAL
Цветовое пространство : YUV
Субдискретизация насыщенности : 4:2:0
Битовая глубина : 8 бит
Тип развёртки : Чересстрочная
Порядок развёртки : Верхнее поле первое
Метод сжатия : С потерями
Бит/(Пиксели*Кадры) : 0.584
Размер потока : 944 Мбайт (92%)
Основные цвета : BT.601 PAL
Характеристики трансфера : BT.470 System B, BT.470 System G
Коэффициенты матрицы : BT.601
Аудио #1
Идентификатор : 189 (0xBD)-128 (0x80)
Формат : AC-3
Формат/Информация : Audio Coding 3
Расширение режима : CM (complete main)
Параметр Endianness формата : Big
Режим смешивания : DVD-Video
Продолжительность : 21 м.
Вид битрейта : Постоянный
Битрейт : 192 Кбит/сек
Каналы : 2 канала
Расположение каналов : Front: L R
Частота : 48,0 КГц
Битовая глубина : 16 бит
Метод сжатия : С потерями
Размер потока : 29,9 Мбайт (3%)
Аудио #2
Идентификатор : 189 (0xBD)-129 (0x81)
Формат : AC-3
Формат/Информация : Audio Coding 3
Расширение режима : CM (complete main)
Параметр Endianness формата : Big
Режим смешивания : DVD-Video
Продолжительность : 21 м.
Вид битрейта : Постоянный
Битрейт : 192 Кбит/сек
Каналы : 2 канала
Расположение каналов : Front: L R
Частота : 48,0 КГц
Битовая глубина : 16 бит
Метод сжатия : С потерями
Размер потока : 29,9 Мбайт (3%)
Текст
Идентификатор : 189 (0xBD)-32 (0x20)
Формат : RLE
Формат/Информация : Run-length encoding
Режим смешивания : DVD-Video
Меню

Постеры

Скриншоты меню

Скриншоты


_________________
Показать сообщения:    

Текущее время: Сегодня 20:14

Часовой пояс: GMT



Вы не можете начинать темы
Вы не можете отвечать на сообщения
Вы не можете редактировать свои сообщения
Вы не можете удалять свои сообщения
Вы не можете голосовать в опросах
Вы не можете прикреплять файлы к сообщениям
Вы не можете скачивать файлы