Важное объявление!
У Нас Все раздачи мультитрекерные, при нуле пиров в релизах, можете смело вставать на закачку!
 
Автор Сообщение

HUNTER

Стаж:
4 года 4 месяца
Сообщений:
56765

Репутация: 101

[+] [-]
Вне форума [Профиль] [ЛС]

Доктор Мордрид / Doctor Mordrid
Год выпуска: 1992
Страна: США
Жанр: фантастика, фэнтези, боевик, триллер
Продолжительность: 01:14:36
Перевод1: Авторский (однооголосый закадровый) (Ю.Сербин)
Перевод2: Авторский (одноголосый закадровый) (А.Гаврилов)
Субтитры: отсутствуют
Оригинальная аудиодорожка: английский
Режиссер: Альберт Бэнд, Чарльз Бэнд / Albert Band, Charles Band
В ролях: Джеффри Комбс, Иветт Нейпар, Джей Аковон, Кит Кулюрис, Рич Бринкли, Брайан Томпсон, Перл Шир, Мюррэй Рубин, Джефф Остин, Джон Апичелла, Джули Майклс и другие.
Описание: Великий Магистр доктор Антон Мордрид, живущий уже 400 лет, ничем не выделяется от остальных жителей Нью-Йорка, но ему подвластно многое, что не укладывается в понимание обычного человека. Однажды он узнает, что в Бразилии Повелитель Темных сил - Кабал, с которым они в своё время вместе обучались магии, завладел магическими алмазами и готовит захват нашей Вселенной. Только доктор Мордрид может спасти человечество от завоевателя...

Качество: BDRemux 1080p
Формат: MKV
Видео кодек: H.264
Аудио кодек: AC3
Видео: 1920 x 1080 / MPEG-4 AVC Video / 24293 kbps / 1080p / 23.976 fps / 16:9 / High Profile 4.1
Аудио1: Русский, AC3 2.0 192 Kbps 48,0 КГц (Serbin)
Аудио2: Русский, AC3 2.0 192 Kbps 48,0 КГц (Gavrilov)
Аудио3: English, AC3 5.1 448 Kbps 48,0 КГц (Original)
Аудио4: English, AC3 2.0 192 Kbps 48,0 КГц (Commentary)
Главы

MediaInfo

Общее
Уникальный идентификатор : 206488075208330905638096377434175857626 (0x9B58281ED1AACE5F8B02A45E014263DA)
Полное имя : D:\Doctor.Mordrid.1992.BDRemux.1080p.2xRus.Eng.mkv
Формат : Matroska
Версия формата : Version 4 / Version 2
Размер файла : 13,2 Гбайт
Продолжительность : 1 ч. 14 м.
Режим общего битрейта : Переменный
Общий поток : 25,3 Мбит/сек
Название фильма : Doctor Mordrid
Дата кодирования : UTC 2015-09-13 10:37:14
Программа кодирования : mkvmerge v7.3.0 ('Nouages') 32bit built on Oct 22 2014 18:44:01
Библиотека кодирования : libebml v1.3.0 + libmatroska v1.4.1
DURATION : 01:14:36.192000000
NUMBER_OF_FRAMES : 139881
NUMBER_OF_BYTES : 107428608
_STATISTICS_WRITING_APP : mkvmerge v7.3.0 ('Nouages') 32bit built on Oct 22 2014 18:44:01
_STATISTICS_WRITING_DATE_UTC : 2015-09-13 10:37:14
_STATISTICS_TAGS : BPS DURATION NUMBER_OF_FRAMES NUMBER_OF_BYTES
Видео
Идентификатор : 1
Формат : AVC
Формат/Информация : Advanced Video Codec
Профиль формата : High@L4.1
Параметр CABAC формата : Да
Параметр ReFrames формата : 3 кадра
Параметр GOP формата : M=3, N=12
Идентификатор кодека : V_MPEG4/ISO/AVC
Продолжительность : 1 ч. 14 м.
Вид битрейта : Переменный
Битрейт : 23,8 Мбит/сек
Максимальный битрейт : 35,0 Мбит/сек
Ширина : 1920 пикселей
Высота : 1080 пикселей
Соотношение сторон : 16:9
Режим частоты кадров : Постоянный
Частота кадров : 23,976 кадра/сек
Стандарт вещания : NTSC
Цветовое пространство : YUV
Субдискретизация насыщенности : 4:2:0
Битовая глубина : 8 бит
Тип развёртки : Прогрессивная
Бит/(Пиксели*Кадры) : 0.479
Размер потока : 12,4 Гбайт (94%)
Заголовок : Doctor.Mordrid.1992.COMPLETE.BLURAY-GF44
Default : Нет
Forced : Нет
Цветовой диапазон : Limited
Основные цвета : BT.709
Характеристики трансфера : BT.709
Коэффициенты матрицы : BT.709
Аудио #1
Идентификатор : 2
Формат : AC-3
Формат/Информация : Audio Coding 3
Расширение режима : CM (complete main)
Параметр Endianness формата : Big
Идентификатор кодека : A_AC3
Продолжительность : 1 ч. 14 м.
Вид битрейта : Постоянный
Битрейт : 192 Кбит/сек
Каналы : 2 канала
Расположение каналов : Front: L R
Частота : 48,0 КГц
Метод сжатия : С потерями
Размер потока : 102 Мбайт (1%)
Заголовок : Serbin AC3 2.0 192 kbps
Язык : Russian
Default : Нет
Forced : Нет
Аудио #2
Идентификатор : 3
Формат : AC-3
Формат/Информация : Audio Coding 3
Расширение режима : CM (complete main)
Параметр Endianness формата : Big
Идентификатор кодека : A_AC3
Продолжительность : 1 ч. 14 м.
Вид битрейта : Постоянный
Битрейт : 192 Кбит/сек
Каналы : 2 канала
Расположение каналов : Front: L R
Частота : 48,0 КГц
Метод сжатия : С потерями
Размер потока : 102 Мбайт (1%)
Заголовок : Gavrilov AC3 2.0 192 kbps
Язык : Russian
Default : Нет
Forced : Нет
Аудио #3
Идентификатор : 4
Формат : AC-3
Формат/Информация : Audio Coding 3
Расширение режима : CM (complete main)
Параметр Endianness формата : Big
Идентификатор кодека : A_AC3
Продолжительность : 1 ч. 14 м.
Вид битрейта : Постоянный
Битрейт : 448 Кбит/сек
Каналы : 6 каналов
Расположение каналов : Front: L C R, Side: L R, LFE
Частота : 48,0 КГц
Метод сжатия : С потерями
Размер потока : 239 Мбайт (2%)
Заголовок : Original AC3 5.1 448 kbps
Язык : English
Default : Нет
Forced : Нет
Аудио #4
Идентификатор : 5
Формат : AC-3
Формат/Информация : Audio Coding 3
Расширение режима : CM (complete main)
Параметр Endianness формата : Big
Идентификатор кодека : A_AC3
Продолжительность : 1 ч. 14 м.
Вид битрейта : Постоянный
Битрейт : 192 Кбит/сек
Каналы : 2 канала
Расположение каналов : Front: L R
Частота : 48,0 КГц
Метод сжатия : С потерями
Размер потока : 102 Мбайт (1%)
Заголовок : Commentary AC3 2.0 192 kbps
Язык : English
Default : Нет
Forced : Нет
Меню
00:00:00.000 : en:00:00:00.000
00:04:33.958 : en:00:04:33.958
00:07:25.292 : en:00:07:25.292
00:11:27.000 : en:00:11:27.000
00:17:03.083 : en:00:17:03.083
00:19:38.958 : en:00:19:38.958
00:24:16.125 : en:00:24:16.125
00:26:43.083 : en:00:26:43.083
00:29:37.292 : en:00:29:37.292
00:35:11.083 : en:00:35:11.083
00:38:54.917 : en:00:38:54.917
00:41:58.333 : en:00:41:58.333
00:45:48.958 : en:00:45:48.958
00:50:03.208 : en:00:50:03.208
00:55:09.792 : en:00:55:09.792
01:02:58.542 : en:01:02:58.542
01:07:36.208 : en:01:07:36.208
01:09:46.292 : en:01:09:46.292
01:13:55.667 : en:01:13:55.667

_________________
Показать сообщения:    

Текущее время: Сегодня 19:33

Часовой пояс: GMT



Вы не можете начинать темы
Вы не можете отвечать на сообщения
Вы не можете редактировать свои сообщения
Вы не можете удалять свои сообщения
Вы не можете голосовать в опросах
Вы не можете прикреплять файлы к сообщениям
Вы не можете скачивать файлы