Важное объявление!
У Нас Все раздачи мультитрекерные, при нуле пиров в релизах, можете смело вставать на закачку!
 
Автор Сообщение

HUNTER

Стаж:
4 года 4 месяца
Сообщений:
56720

Репутация: 101

[+] [-]
Вне форума [Профиль] [ЛС]

Доктор Голливуд / Doc Hollywood
Страна: США
Студия: Warner Bros. Pictures
Жанр: комедия, мелодрама
Год выпуска: 1991
Продолжительность: 01:43:24
Перевод: Авторский (одноголосый закадровый) - Алексей Михалёв
Перевод: Авторский (одноголосый закадровый) - Юрий Живов
Перевод: Профессиональный (многоголосый закадровый) с DVD
Перевод: Профессиональный (дублированный) - Варус Видео
Перевод: Профессиональный (многоголосый закадровый) - ОРТ
Перевод: Профессиональный (многоголосый закадровый) - НТВ
Перевод: Профессиональный (многоголосый закадровый) - РТР
Cубтитры: английские, чешские, турецкие
Оригинальная аудиодорожка: английский

Режиссер: Майкл Кейтон-Джонс / Michael Caton-Jones
В ролях: Майкл Дж. Фокс, Бриджит Фонда, Вуди Харрельсон, Дэвид Огден Стайерз, Джордж Хэмилтон, Джули Уорнер, Барнард Хьюз, Фрэнсис Стернхаген, Мел Уинклер, Робертс Блоссом
Описание: Судьба подложила ему свинью. Бенджи Стоун был подающим надежды пластическим хирургом, ехал в Голливуд, и вдруг - авария на главной улице какого-то захолустного городка. Кто виноват? Конечно, Бенджи. Полиция определяет нарушителю наказание: 32 часа принудительных работ терапевтом в местной больнице. Нормально? Доктор Голливуд приступает к работе. И самое дикое - она ему нравится. Потому что рядом - прехорошенькая провинциалочка.-
-
-К исходному web-dl 1080 добавлены Живов и субтитры [url=viewtopic.php?t=1699513]отсюда[/url], Михалёв и многоголосый закадровый [url=viewtopic.php?t=588332]отсюда[/url]. ОРТ, НТВ, Варус и РТР взяты [url=viewtopic.php?t=4506959]здесь[/url]. Большое спасибо за них Fikaloid, серый75, xfiles, а так же JUSTKANT за синхрон. Финальная синхронизация всех переводов и субтитров моя.-
-
-Тип релиза: WEB-DL 1080p
Контейнер: MKV
Видео: 1904x1076 (16:9), 23.976 fps, AVC, ~5185 kbps, 0.106 bits/pixel
Аудио 1: Russian, 48.0 KHz, AC3, 2 ch, 192 kbps - Михалёв
Аудио 2: Russian, 48.0 KHz, AC3, 6 ch, 384 kbps - Живов
Аудио 3: Russian, 48.0 KHz, AC3, 2 ch, 192 kbps - многоголосый с dvd
Аудио 4: Russian, 48.0 KHz, AC3, 2 ch, 192 kbps - Варус Видео
Аудио 5: Russian, 48.0 KHz, AC3, 2 ch, 192 kbps - ОРТ
Аудио 6: Russian, 48.0 KHz, AC3, 2 ch, 192 kbps - НТВ
Аудио 7: Russian, 48.0 KHz, AC3, 2 ch, 192 kbps - РТР
Аудио 8: Russian, 48.0 KHz, AC3, 6 ch, 384 kbps - оригинал
Формат субтитров: softsub (SRT)

MediaInfo

Общее
Уникальный идентификатор : 193397031960692791928304619666075820599 (0x917EE9DB316F55A0B5E133478AEC2237)
Полное имя : H:\Doc.Hollywood.1991.WEB-DL.1080p_[teko].mkv
Формат : Matroska
Версия формата : Version 4 / Version 2
Размер файла : 5,24 Гбайт
Продолжительность : 1 ч. 43 м.
Общий поток : 7249 Кбит/сек
Дата кодирования : UTC 2016-08-29 16:02:34
Программа кодирования : mkvmerge v7.9.0 ('Birds') 64bit
Библиотека кодирования : libebml v1.3.1 + libmatroska v1.4.2
Видео
Идентификатор : 1
Формат : AVC
Формат/Информация : Advanced Video Codec
Профиль формата : High@L4.0
Параметр CABAC формата : Да
Параметр ReFrames формата : 4 кадра
Параметр GOP формата : N=2
Идентификатор кодека : V_MPEG4/ISO/AVC
Продолжительность : 1 ч. 43 м.
Битрейт : 5184 Кбит/сек
Ширина : 1904 пикселя
Высота : 1076 пикселей
Соотношение сторон : 16:9
Режим частоты кадров : Постоянный
Частота кадров : 23,976 кадра/сек
Цветовое пространство : YUV
Субдискретизация насыщенности : 4:2:0
Битовая глубина : 8 бит
Тип развёртки : Прогрессивная
Бит/(Пиксели*Кадры) : 0.106
Размер потока : 3,74 Гбайт (72%)
Язык : English
Default : Да
Forced : Нет
Основные цвета : BT.709
Характеристики трансфера : BT.709
Коэффициенты матрицы : BT.709
Аудио #1
Идентификатор : 2
Формат : AC-3
Формат/Информация : Audio Coding 3
Расширение режима : CM (complete main)
Параметр Endianness формата : Big
Идентификатор кодека : A_AC3
Продолжительность : 1 ч. 43 м.
Вид битрейта : Постоянный
Битрейт : 192 Кбит/сек
Каналы : 2 канала
Расположение каналов : Front: L R
Частота : 48,0 КГц
Битовая глубина : 16 бит
Метод сжатия : С потерями
Размер потока : 142 Мбайт (3%)
Заголовок : avo_Михалёв
Язык : Russian
Default : Да
Forced : Нет
Аудио #2
Идентификатор : 3
Формат : AC-3
Формат/Информация : Audio Coding 3
Расширение режима : CM (complete main)
Параметр Endianness формата : Big
Идентификатор кодека : A_AC3
Продолжительность : 1 ч. 43 м.
Вид битрейта : Постоянный
Битрейт : 384 Кбит/сек
Каналы : 6 каналов
Расположение каналов : Front: L C R, Side: L R, LFE
Частота : 48,0 КГц
Битовая глубина : 16 бит
Метод сжатия : С потерями
Размер потока : 284 Мбайт (5%)
Заголовок : avo_Живов
Язык : Russian
Default : Нет
Forced : Нет
Аудио #3
Идентификатор : 4
Формат : AC-3
Формат/Информация : Audio Coding 3
Расширение режима : CM (complete main)
Параметр Endianness формата : Big
Идентификатор кодека : A_AC3
Продолжительность : 1 ч. 43 м.
Вид битрейта : Постоянный
Битрейт : 192 Кбит/сек
Каналы : 2 канала
Расположение каналов : Front: L R
Частота : 48,0 КГц
Битовая глубина : 16 бит
Метод сжатия : С потерями
Размер потока : 142 Мбайт (3%)
Заголовок : mvo_dvd
Язык : Russian
Default : Нет
Forced : Нет
Аудио #4
Идентификатор : 5
Формат : AC-3
Формат/Информация : Audio Coding 3
Расширение режима : CM (complete main)
Параметр Endianness формата : Big
Идентификатор кодека : A_AC3
Продолжительность : 1 ч. 43 м.
Вид битрейта : Постоянный
Битрейт : 192 Кбит/сек
Каналы : 2 канала
Расположение каналов : Front: L R
Частота : 48,0 КГц
Битовая глубина : 16 бит
Метод сжатия : С потерями
Размер потока : 142 Мбайт (3%)
Заголовок : dub_Варус Видео
Язык : Russian
Default : Нет
Forced : Нет
Аудио #5
Идентификатор : 6
Формат : AC-3
Формат/Информация : Audio Coding 3
Расширение режима : CM (complete main)
Параметр Endianness формата : Big
Идентификатор кодека : A_AC3
Продолжительность : 1 ч. 43 м.
Вид битрейта : Постоянный
Битрейт : 192 Кбит/сек
Каналы : 2 канала
Расположение каналов : Front: L R
Частота : 48,0 КГц
Битовая глубина : 16 бит
Метод сжатия : С потерями
Размер потока : 142 Мбайт (3%)
Заголовок : mvo_ОРТ
Язык : Russian
Default : Нет
Forced : Нет
Аудио #6
Идентификатор : 7
Формат : AC-3
Формат/Информация : Audio Coding 3
Расширение режима : CM (complete main)
Параметр Endianness формата : Big
Идентификатор кодека : A_AC3
Продолжительность : 1 ч. 43 м.
Вид битрейта : Постоянный
Битрейт : 192 Кбит/сек
Каналы : 2 канала
Расположение каналов : Front: L R
Частота : 48,0 КГц
Битовая глубина : 16 бит
Метод сжатия : С потерями
Размер потока : 142 Мбайт (3%)
Заголовок : mvo_НТВ
Язык : Russian
Default : Нет
Forced : Нет
Аудио #7
Идентификатор : 8
Формат : AC-3
Формат/Информация : Audio Coding 3
Расширение режима : CM (complete main)
Параметр Endianness формата : Big
Идентификатор кодека : A_AC3
Продолжительность : 1 ч. 43 м.
Вид битрейта : Постоянный
Битрейт : 192 Кбит/сек
Каналы : 2 канала
Расположение каналов : Front: L R
Частота : 48,0 КГц
Битовая глубина : 16 бит
Метод сжатия : С потерями
Размер потока : 142 Мбайт (3%)
Заголовок : mvo_РТР
Язык : Russian
Default : Нет
Forced : Нет
Аудио #8
Идентификатор : 9
Формат : AC-3
Формат/Информация : Audio Coding 3
Расширение режима : CM (complete main)
Параметр Endianness формата : Big
Идентификатор кодека : A_AC3
Продолжительность : 1 ч. 43 м.
Вид битрейта : Постоянный
Битрейт : 384 Кбит/сек
Каналы : 6 каналов
Расположение каналов : Front: L C R, Side: L R, LFE
Частота : 48,0 КГц
Битовая глубина : 16 бит
Метод сжатия : С потерями
Размер потока : 284 Мбайт (5%)
Заголовок : Original English
Язык : English
Default : Нет
Forced : Нет
Текст #1
Идентификатор : 10
Формат : UTF-8
Идентификатор кодека : S_TEXT/UTF8
Идентификатор кодека/Информация : UTF-8 Plain Text
Язык : English
Default : Нет
Forced : Нет
Текст #2
Идентификатор : 11
Формат : UTF-8
Идентификатор кодека : S_TEXT/UTF8
Идентификатор кодека/Информация : UTF-8 Plain Text
Язык : Czech
Default : Нет
Forced : Нет
Текст #3
Идентификатор : 12
Формат : UTF-8
Идентификатор кодека : S_TEXT/UTF8
Идентификатор кодека/Информация : UTF-8 Plain Text
Язык : Turkish
Default : Нет
Forced : Нет

Скриншоты

Релиз группы:
[url=viewtopic.php?t=1677970] [/url]
--

_________________
Показать сообщения:    

Текущее время: Сегодня 05:53

Часовой пояс: GMT



Вы не можете начинать темы
Вы не можете отвечать на сообщения
Вы не можете редактировать свои сообщения
Вы не можете удалять свои сообщения
Вы не можете голосовать в опросах
Вы не можете прикреплять файлы к сообщениям
Вы не можете скачивать файлы