Важное объявление!
У Нас Все раздачи мультитрекерные, при нуле пиров в релизах, можете смело вставать на закачку!
 
Автор Сообщение

HUNTER

Стаж:
4 года 4 месяца
Сообщений:
56798

Репутация: 101

[+] [-]
Вне форума [Профиль] [ЛС]

Доисторические хроники 5 серий / Prehistoric
Год выпуска: 2009
Жанр: Документальный
Продолжительность: 3:35:36
Перевод: Профессиональный (одноголосый)
Русские субтитры: нет
Режиссер: Джон Форд
Описание: Цикл фильмов "Доисторические хроники" повествует о том, какой в древние времена была флора и фауна на территории 5 самых значимый городов США - Чикаго, Денвер, Лос Анжелес, Нью Йорк, Вашингтон
Доп. информация MediaInfo
: General
Complete name : D:\Movies\Doistorijeskie.hroniki.(1-5.serii.iz.5).2009.XviD.SATRip\Doistoricheskije.hroniki.(1.seriya.iz.5).2009.XviD.SATRip.avi
Format : AVI
Format/Info : Audio Video Interleave
File size : 348 MiB
Duration : 43mn 25s
Overall bit rate : 1 120 Kbps
Writing application : VirtualDubMod 1.5.4.1 (build 2178/release)
Writing library : VirtualDub build 32706/release
Video
ID : 0
Format : MPEG-4 Visual
Format profile : Advanced Simple@L5
Format settings, BVOP : Yes
Format settings, QPel : No
Format settings, GMC : No warppoints
Format settings, Matrix : Custom
Codec ID : XVID
Codec ID/Hint : XviD
Duration : 43mn 25s
Bit rate : 982 Kbps
Width : 720 pixels
Height : 416 pixels
Display aspect ratio : 16:9
Frame rate : 25.000 fps
Resolution : 8 bits
Colorimetry : 4:2:0
Scan type : Progressive
Bits/(Pixel*Frame) : 0.131
Stream size : 305 MiB (88%)
Writing library : XviD 1.2.1 (UTC 2008-12-04)
Audio
ID : 1
Format : MPEG Audio
Format version : Version 1
Format profile : Layer 3
Codec ID : 55
Codec ID/Hint : MP3
Duration : 43mn 25s
Bit rate mode : Constant
Bit rate : 128 Kbps
Channel(s) : 1 channel
Sampling rate : 48.0 KHz
Stream size : 39.8 MiB (11%)
Alignment : Aligned on interleaves
Interleave, duration : 40 ms (1.00 video frame)
Interleave, preload duration : 504 ms
Writing library : LAME3.98
Качество: SatRip
Формат: AVI
Видео кодек: XviD
Аудио кодек: MP3
Видео: 720x416 (1.73:1), 25 fps, XviD build 50 ~982 kbps avg, 0.13 bit/pixel
Аудио: 48 kHz, MPEG Layer 3, 1 ch, ~128.00 kbps avg
Скриншоты
Доисторический Чикаго


Доисторический Денвер


Доисторический Лос-Анджелес


Доисторический Нью-Йорк


Доисторический Вашингтон



_________________
Показать сообщения:    

Текущее время: Сегодня 20:37

Часовой пояс: GMT



Вы не можете начинать темы
Вы не можете отвечать на сообщения
Вы не можете редактировать свои сообщения
Вы не можете удалять свои сообщения
Вы не можете голосовать в опросах
Вы не можете прикреплять файлы к сообщениям
Вы не можете скачивать файлы