Важное объявление!
У Нас Все раздачи мультитрекерные, при нуле пиров в релизах, можете смело вставать на закачку!
 
Автор Сообщение

HUNTER

Стаж:
4 года 4 месяца
Сообщений:
56772

Репутация: 101

[+] [-]
Вне форума [Профиль] [ЛС]

Доисторические монстры Гитлера / Hitler's Jurassic Monsters

-
Дата/Год выпуска: 2014
Страна: США
Жанр: Документальный
Продолжительность: 00:44:00
Перевод: Профессиональный одноголосый (студия "Велес" С.Петербург)
Студия: National Geographic
Режиссер:: Джереми Бристоу / Jeremy Bristow
Описание: Рассказ о том, как нацисты с помощью лучших ученых Германии планировали создать обширные парки для охоты, нарушающие законы природы.
До сих пор некоторые планы третьего рейха вызывают интерес мировых ученых и историков. Например об одно м из этих планов стало известно современникам .Нацисты хотели воссоздать то что уже давно перестало существовать. Научные работники СС пытались восстановить доисторических животных для использования в своих целях. Этих зверей хотели возродить для развлечения высшей расы .Это была попытка починить себе историю и изменить ход эволюции . Все начиналось с Беловежской Пущи. Особо отличился в тех событиях триста двадцать первый батальон , описания его зверств дошли до наших дней.
Качество: SATRip
Формат: AVI
Видео кодек: XviD
Аудио кодек: MP3
Видео: XVID, 704x400 (16:9),~ 1530 Kbps, 25.000 fps
Аудио: MPEG Audio, 2 ch, 128 Kbps, 44.1 KHz Сэмпл MediaInfo
I:\Доисторические монстры Гитлера\Doistoricheskie_monstri_Gitlera.avi General Complete name : I:\Доисторические монстры Гитлера\Doistoricheskie_monstri_Gitlera.avi Format : AVI Format/Info : Audio Video Interleave File size : 526 MiB Duration : 43mn 56s Overall bit rate : 1 673 Kbps Writing application : VirtualDubMod 1.5.10.3 | www.virtualdub-fr.org || (build 2550/release) Writing library : VirtualDub build 35491/release Video #0 ID : 0 Format : MPEG-4 Visual Format profile : Advanced Simple@L5 Format settings, BVOP : 1 Format settings, QPel : No Format settings, GMC : No warppoints Format settings, Matrix : Custom Codec ID : XVID Codec ID/Hint : XviD Duration : 43mn 56s Bit rate : 1 535 Kbps Width : 704 pixels Height : 400 pixels Display aspect ratio : 16:9 Frame rate : 25.000 fps Color space : YUV Chroma subsampling : 4:2:0 Bit depth : 8 bits Scan type : Progressive Compression mode : Lossy Bits/(Pixel*Frame) : 0.218 Stream size : 482 MiB (92%) Writing library : XviD 1.2.1 (UTC 2008-12-04) Audio #1 ID : 1 Format : MPEG Audio Format version : Version 1 Format profile : Layer 3 Codec ID : 55 Codec ID/Hint : MP3 Duration : 43mn 56s Bit rate mode : Constant Bit rate : 128 Kbps Channel count : 2 channels Sampling rate : 44.1 KHz Compression mode : Lossy Delay relative to video : 17ms Stream size : 40.2 MiB (8%) Alignment : Split accross interleaves Interleave, duration : 40 ms (1.00 video frame) Interleave, preload duration : 500 ms
Скриншоты

_________________
Показать сообщения:    

Текущее время: Сегодня 17:12

Часовой пояс: GMT



Вы не можете начинать темы
Вы не можете отвечать на сообщения
Вы не можете редактировать свои сообщения
Вы не можете удалять свои сообщения
Вы не можете голосовать в опросах
Вы не можете прикреплять файлы к сообщениям
Вы не можете скачивать файлы